<?xml version="1.0" standalone="no"?>
<!DOCTYPE svg PUBLIC "-//W3C//DTD SVG 1.1//EN" "http://www.w3.org/Graphics/SVG/1.1/DTD/svg11.dtd" >
<svg xmlns="http://www.w3.org/2000/svg" xmlns:xlink="http://www.w3.org/1999/xlink" version="1.1">
<metadata></metadata>
<defs>
<font id="hindlight" horiz-adv-x="1083" >
<font-face units-per-em="2048" ascent="1638" descent="-410" />
<missing-glyph horiz-adv-x="495" />
<glyph horiz-adv-x="0" />
<glyph horiz-adv-x="682" />
<glyph horiz-adv-x="0" />
<glyph horiz-adv-x="0" />
<glyph unicode="&#xd;" horiz-adv-x="681" />
<glyph unicode=" "  horiz-adv-x="495" />
<glyph unicode="&#x09;" horiz-adv-x="495" />
<glyph unicode="&#xa0;" horiz-adv-x="495" />
<glyph unicode="!" horiz-adv-x="493" d="M141 85q0 44 30 74.5t74 30.5t74.5 -30.5t30.5 -74.5t-30.5 -72.5t-75.5 -28.5t-74 28.5t-29 72.5zM184 401v979h125v-979h-125z" />
<glyph unicode="&#x22;" horiz-adv-x="555" d="M92 924v471h117v-471h-117zM346 924v471h117v-471h-117z" />
<glyph unicode="#" horiz-adv-x="1427" d="M113 356v105h249l97 459h-226v104h248l74 356h121l-76 -356h389l76 356h117l-74 -356h207v-104h-230l-96 -459h209v-105h-231l-74 -356h-121l76 356h-389l-76 -356h-117l74 356h-227zM481 461h389l97 459h-389z" />
<glyph unicode="$" horiz-adv-x="1028" d="M119 1030q0 160 113.5 256t281.5 107v206h113v-210q125 -14 209 -58v-141q-49 33 -129 55.5t-156 22.5q-137 0 -219 -64.5t-82 -171.5q0 -111 92 -176q74 -51 151.5 -84t121.5 -52.5t92.5 -47t101.5 -70.5q106 -90 106 -253t-109.5 -258t-283.5 -105v-205h-112v209 q-162 12 -287 86v141q61 -47 158.5 -77.5t220.5 -30.5t203.5 63.5t80.5 181.5q0 111 -94 174q-72 51 -209 109q-6 2 -10 4t-10 4t-46 19.5t-88 44t-104 71.5q-106 90 -106 250z" />
<glyph unicode="%" horiz-adv-x="1667" d="M102 1044.5q0 126.5 90.5 217t217.5 90.5t217 -90.5t90 -217t-90 -217t-217 -90.5t-217.5 90.5t-90.5 217zM217 1044.5q0 -79.5 56.5 -136t136 -56.5t136 56.5t56.5 136t-56.5 136t-136 56.5t-136 -56.5t-56.5 -136zM410 -2l720 1341h127l-722 -1341h-125zM950 293 q0 127 90 217t217 90t217.5 -91t90.5 -217t-90.5 -216t-217.5 -90t-217 90t-90 217zM1065 293q0 -80 56.5 -136.5t136 -56.5t136 56.5t56.5 136.5t-56.5 136t-136 56t-136 -56t-56.5 -136z" />
<glyph unicode="&#x26;" horiz-adv-x="1419" d="M141 356q0 121 84 205t246 152q-109 115 -153 196.5t-44 171.5q0 147 99.5 240.5t265.5 93.5t269.5 -101.5t103.5 -232.5t-78 -225t-260 -174q115 -104 389 -356q49 86 61 204h125q-18 -166 -94 -288l262 -242h-180l-158 147q-159 -163 -440 -163q-219 0 -358.5 103 t-139.5 269zM272 345.5q0 -103.5 101.5 -171.5t259.5 -68q221 0 356 125q-410 375 -432 398q-143 -61 -214 -120.5t-71 -163zM408 1095q0 -85 34.5 -150.5t143.5 -178.5q154 70 224.5 139.5t70.5 163.5t-62.5 158.5t-172 64.5t-174 -56t-64.5 -141z" />
<glyph unicode="'" horiz-adv-x="301" d="M92 924v471h117v-471h-117z" />
<glyph unicode="(" horiz-adv-x="620" d="M164 537q0 244 84 483.5t227 427.5h146q-324 -444 -324 -924.5t338 -924.5h-143q-328 418 -328 938z" />
<glyph unicode=")" horiz-adv-x="620" d="M-14 -401q338 444 338 924.5t-324 924.5h145q143 -188 227.5 -427.5t84.5 -483.5q0 -520 -328 -938h-143z" />
<glyph unicode="*" horiz-adv-x="780" d="M59 1102l31 98l189 -61q43 -14 75 -41q-18 31 -18 86v196h102v-196q0 -45 -14 -84q25 27 74 43l188 59l33 -96l-189 -64q-30 -10 -67 -10h-17q33 -14 64 -57l115 -160l-82 -61l-117 159q-31 41 -37 80q-4 -39 -35 -82l-116 -157l-84 59l116 160q29 39 66 59q-8 -2 -34 -2 t-56 10z" />
<glyph unicode="+" horiz-adv-x="1114" d="M123 639v115h366v393h117v-393h385v-115h-385v-393h-117v393h-366z" />
<glyph unicode="," horiz-adv-x="423" d="M-16 -250l186 438h184l-260 -438h-110z" />
<glyph unicode="-" horiz-adv-x="706" d="M123 498v112h461v-112h-461z" />
<glyph unicode="." horiz-adv-x="290" d="M41 88q0 45 29.5 75t74.5 30t75 -30t30 -75t-30 -74.5t-75 -29.5t-74.5 29.5t-29.5 74.5z" />
<glyph unicode="/" horiz-adv-x="792" d="M-23 -209l750 1657h127l-752 -1657h-125z" />
<glyph unicode="0" horiz-adv-x="1112" d="M92 673.5q0 311.5 129 495t334 183.5t335 -182.5t130 -495t-123 -501.5t-337 -189t-341 189t-127 500.5zM221 673q0 -265 96.5 -416t242 -151t238.5 147.5t93 418t-97.5 414t-235.5 143.5t-237.5 -145.5t-99.5 -410.5z" />
<glyph unicode="1" horiz-adv-x="630" d="M41 1014v141l301 184h125v-1339h-125v1202z" />
<glyph unicode="2" horiz-adv-x="1007" d="M82 0v113q655 502 655 835q0 139 -78.5 212t-222 73t-305.5 -119v127q139 111 315.5 111t299 -103.5t122.5 -294.5q0 -356 -608 -841h655v-113h-833z" />
<glyph unicode="3" horiz-adv-x="944" d="M82 55v127q145 -76 305 -76t237.5 74t77.5 194t-86 183.5t-235 63.5h-90v112h90q115 0 196.5 70.5t81.5 189.5t-72.5 179.5t-207.5 60.5t-260 -82v127q111 74 287 74t280.5 -100.5t104.5 -245.5q0 -233 -213 -326q115 -27 184 -109t69 -202q0 -164 -110.5 -272.5 t-304 -108.5t-334.5 67z" />
<glyph unicode="4" horiz-adv-x="1093" d="M92 336v113l537 890h207v-890h206v-113h-206v-336h-123v336h-621zM221 449h492v819z" />
<glyph unicode="5" horiz-adv-x="1048" d="M133 51v127q131 -76 320 -76q362 0 362 314q0 129 -86 198.5t-226.5 69.5t-301.5 -72v727h651v-112h-524v-447q100 23 178 23q199 0 319.5 -106.5t120.5 -295t-127 -303t-335 -114.5t-351 67z" />
<glyph unicode="6" horiz-adv-x="1071" d="M117 604q0 461 268 670q139 109 332 108q96 0 182 -30v-127q-84 39 -184 39q-205 0 -326 -158t-143 -393q66 70 160 109.5t188 39.5q186 0 291.5 -116.5t105.5 -315.5t-112.5 -322.5t-294.5 -123.5q-223 0 -345 172t-122 448zM240 582q4 -234 98 -358t233.5 -124 t214 94.5t74.5 240t-74.5 227t-185.5 81.5t-205 -46t-155 -115z" />
<glyph unicode="7" horiz-adv-x="907" d="M20 1227v112h867v-112l-563 -1227h-136l566 1227h-734z" />
<glyph unicode="8" horiz-adv-x="1091" d="M113 332q0 127 70.5 213t191.5 121q-113 35 -176.5 117.5t-63.5 197.5q0 174 122 272.5t283.5 98.5t282.5 -97.5t121 -277.5q0 -109 -62.5 -190.5t-172.5 -116.5q127 -33 198.5 -115t71.5 -213q0 -162 -127 -260t-309.5 -98t-306 95t-123.5 253zM242 346.5 q0 -106.5 77.5 -175.5t224 -69t226.5 75t80 181.5t-77 179t-229.5 70.5t-227 -78.5t-74.5 -183zM264 970.5q0 -116.5 79 -180t201 -63.5t196.5 67.5t74.5 182.5t-72.5 185.5t-200.5 70.5t-203 -73t-75 -189.5z" />
<glyph unicode="9" horiz-adv-x="1015" d="M82 915.5q0 192.5 109.5 316.5t297.5 124q221 0 329 -166t108 -412q0 -367 -138.5 -580.5t-429.5 -213.5q-119 0 -229 39v127q108 -48 229 -48q387 0 437 508q-106 -127 -312 -127q-160 0 -280.5 120t-120.5 312.5zM213 916.5q0 -150.5 81 -233.5t220 -83q178 0 289 139 v39q0 178 -62 309q-33 70 -97 110t-152 40q-127 0 -203 -85t-76 -235.5z" />
<glyph unicode=":" horiz-adv-x="454" d="M123 99q0 44 29.5 75t73.5 31t75 -31t31 -75t-31 -72.5t-76 -28.5t-73.5 28.5t-28.5 72.5zM123 755q0 44 29.5 74.5t73.5 30.5t75 -30.5t31 -74.5t-31 -73t-76 -29t-73.5 29t-28.5 73z" />
<glyph unicode=";" horiz-adv-x="423" d="M-16 -250l186 438h184l-260 -438h-110zM141 753q0 44 30 74.5t74 30.5t74.5 -30.5t30.5 -74.5t-30.5 -73t-75.5 -29t-74 29t-29 73z" />
<glyph unicode="&#x3c;" horiz-adv-x="1044" d="M123 637v123l819 391v-133q-489 -225 -682 -318l682 -321v-133z" />
<glyph unicode="=" horiz-adv-x="1114" d="M123 440v115h868v-115h-868zM123 840v112h868v-112h-868z" />
<glyph unicode="&#x3e;" horiz-adv-x="1044" d="M102 246v133q485 225 682 321l-682 318v133l820 -391v-123z" />
<glyph unicode="?" horiz-adv-x="921" d="M82 1174v133q55 37 146.5 63.5t183.5 26.5q197 0 312.5 -98.5t115.5 -274.5t-122 -272.5t-298 -112.5v-238h-125v349q193 0 303.5 68.5t110.5 193.5t-74 195.5t-231.5 70.5t-321.5 -104zM252 85q0 44 29.5 74.5t73.5 30.5t75 -30.5t31 -74.5t-31 -72.5t-76 -28.5 t-73.5 28.5t-28.5 72.5z" />
<glyph unicode="@" horiz-adv-x="1814" d="M133 399q0 356 250 590t608 234q305 0 513 -188.5t208 -502.5q0 -233 -107.5 -356t-240.5 -123q-176 0 -223 164q-113 -170 -299 -170q-147 0 -232.5 102.5t-85.5 268.5t110.5 291t276.5 125t244 -127q2 47 6 114h109l-37 -346q-6 -57 -6 -113q0 -205 145 -204 q94 0 158.5 104.5t64.5 263.5q0 274 -172 431t-448.5 157t-495.5 -201.5t-219 -502.5t165 -458t385 -157t366 86l-9 -133q-123 -65 -348 -65q-315 0 -500.5 199.5t-185.5 516.5zM649 410.5q0 -119.5 55.5 -186t144.5 -66.5t167 59t114 166q0 27 9 113q-16 111 -69.5 168 t-165 57t-183.5 -95.5t-72 -215z" />
<glyph unicode="A" horiz-adv-x="1304" d="M78 0l487 1380h185l477 -1380h-137l-132 383h-610l-133 -383h-137zM387 496h535l-265 778q-77 -237 -270 -778z" />
<glyph unicode="B" horiz-adv-x="1150" d="M164 0v1380h385q209 0 339 -95t130 -263q0 -123 -68.5 -210t-177.5 -110q117 -14 202 -100t85 -243.5t-107.5 -258t-308.5 -100.5h-479zM291 113h352q133 0 208 66.5t75 193.5t-85 197.5t-237 70.5h-313v-528zM291 754h248q178 0 262 76.5t84 187t-81 180.5t-241 70h-272 v-514z" />
<glyph unicode="C" horiz-adv-x="1226" d="M102 687.5q0 322.5 199 517t492 194.5q203 0 348 -74v-133q-90 47 -160 66.5t-193 19.5q-238 0 -396.5 -161t-158.5 -425t157 -426t417 -162q203 0 338 107v-139q-125 -88 -344 -88q-313 0 -506 190.5t-193 513z" />
<glyph unicode="D" horiz-adv-x="1341" d="M164 0v1380h393q303 0 497.5 -188t194.5 -494q0 -403 -303 -596q-158 -102 -379 -102h-403zM291 117h276q141 0 250 49t172 133q127 168 127 401.5t-156.5 398.5t-402.5 165h-266v-1147z" />
<glyph unicode="E" horiz-adv-x="1003" d="M164 0v1380h735v-116h-608v-516h536v-117h-536v-514h620v-117h-747z" />
<glyph unicode="F" horiz-adv-x="991" d="M164 0v1380h735v-116h-608v-527h536v-116h-536v-621h-127z" />
<glyph unicode="G" horiz-adv-x="1353" d="M102 683q0 321 187.5 521.5t474.5 200.5q244 0 401 -96v-142q-158 111 -392 111t-387 -161t-153 -429t152 -422.5t418 -154.5q158 0 280 63v473h-325v113h452v-658q-161 -118 -405 -118h-4q-315 0 -507 189t-192 510z" />
<glyph unicode="H" horiz-adv-x="1294" d="M164 0v1380h127v-618h713v618h126v-1380h-126v645h-713v-645h-127z" />
<glyph unicode="I" horiz-adv-x="475" d="M174 0v1380h127v-1380h-127z" />
<glyph unicode="J" horiz-adv-x="714" d="M61 47v129q83 -55 177 -55q186 0 186 196v1063h127v-1042q0 -338 -301 -338q-111 0 -189 47z" />
<glyph unicode="K" horiz-adv-x="1124" d="M164 0v1380h127v-1380h-127zM328 680l546 700h160l-545 -700l574 -680h-168z" />
<glyph unicode="L" horiz-adv-x="970" d="M164 0v1380h127v-1263h608v-117h-735z" />
<glyph unicode="M" horiz-adv-x="1736" d="M154 0l96 1380h174l180 -506l244 -702q141 387 446 1208h174l117 -1380h-127l-102 1214q-131 -367 -434 -1179h-150l-410 1165q-18 -301 -81 -1200h-127z" />
<glyph unicode="N" horiz-adv-x="1366" d="M164 0v1380h174l741 -1230q-4 213 -4 645v585h127v-1380h-174l-741 1231q4 -221 4 -647v-584h-127z" />
<glyph unicode="O" horiz-adv-x="1415" d="M102 697.5q0 324.5 163 518t445.5 193.5t442.5 -191.5t160 -520t-162 -521t-438.5 -192.5t-443.5 194.5t-167 519zM233 698.5q0 -274.5 130.5 -433.5t351.5 -159t344 157t123 434.5t-124 433t-348.5 155.5t-350.5 -156.5t-126 -431z" />
<glyph unicode="P" horiz-adv-x="1105" d="M164 0v1380h332q242 0 380 -121.5t138 -307t-134.5 -306.5t-361.5 -121h-227v-524h-127zM291 637h241q162 0 257.5 86t95.5 226.5t-98.5 229.5t-276.5 89h-219v-631z" />
<glyph unicode="Q" horiz-adv-x="1435" d="M102 697.5q0 324.5 163 518t445.5 193.5t442.5 -191.5t160 -521.5q0 -244 -92.5 -415.5t-257.5 -245.5l405 -262l-133 -58l-414 277q-47 -8 -110 -8q-274 0 -441.5 194.5t-167.5 519zM233 698.5q0 -274.5 130.5 -433.5t351.5 -159t344 157t123 434.5t-124 433 t-348.5 155.5t-350.5 -156.5t-126 -431z" />
<glyph unicode="R" horiz-adv-x="1087" d="M164 0v1380h311q242 0 361.5 -109.5t119.5 -309.5q-4 -139 -77.5 -239.5t-208.5 -137.5l366 -584h-151l-346 561h-248v-561h-127zM291 674h223q152 0 233.5 84t81.5 209q0 301 -340 301h-198v-594z" />
<glyph unicode="S" horiz-adv-x="1079" d="M274.5 1295.5q124.5 97.5 301 97.5t290.5 -62v-141q-49 33 -128.5 55.5t-155.5 22.5q-137 0 -219 -64.5t-82 -171.5q0 -111 94 -176q76 -55 176 -97t137 -59.5t94.5 -54.5t85.5 -72q78 -94 78 -217q0 -180 -120.5 -275t-321.5 -95t-350 90v141q61 -47 158.5 -77.5 t220 -30.5t203.5 63.5t81 167.5t-61 160q-68 61 -250 139q-170 74 -204 102.5t-66.5 59t-47.5 61.5q-38 82 -38 158q0 178 124.5 275.5z" />
<glyph unicode="T" horiz-adv-x="952" d="M31 1264v116h891v-116h-383v-1264h-127v1264h-381z" />
<glyph unicode="U" horiz-adv-x="1308" d="M164 506v874h127v-872q0 -207 97 -304.5t263 -97.5q367 0 367 412v862h127v-858q0 -266 -129 -402t-362.5 -136t-361.5 133t-128 389z" />
<glyph unicode="V" horiz-adv-x="1292" d="M82 1380h137l420 -1267l434 1267h137l-485 -1380h-174z" />
<glyph unicode="W" horiz-adv-x="1902" d="M82 1380h133l315 -1251q117 414 355 1231h149l383 -1239q100 463 277 1259h127l-314 -1380h-174l-370 1194q-68 -244 -349 -1194h-174z" />
<glyph unicode="X" horiz-adv-x="1228" d="M86 0l446 696l-419 684h147l342 -569l342 569h148l-418 -684l469 -696h-148l-391 588l-371 -588h-147z" />
<glyph unicode="Y" horiz-adv-x="1187" d="M61 1380h146l108 -202l277 -533q16 39 389 735h145l-471 -864v-516h-127v516z" />
<glyph unicode="Z" horiz-adv-x="1136" d="M102 0v113l758 1155h-749v112h893v-112l-758 -1155h788v-113h-932z" />
<glyph unicode="[" horiz-adv-x="606" d="M164 -367v1815h442v-113h-315v-1587h315v-115h-442z" />
<glyph unicode="\" horiz-adv-x="790" d="M-61 1448h127l749 -1659h-127z" />
<glyph unicode="]" horiz-adv-x="606" d="M0 -252h315v1587h-315v113h442v-1815h-442v115z" />
<glyph unicode="^" horiz-adv-x="927" d="M98 680l287 537h168l276 -537h-131l-231 463l-238 -463h-131z" />
<glyph unicode="_" horiz-adv-x="1157" d="M61 -55h1035v-113h-1035v113z" />
<glyph unicode="`" horiz-adv-x="819" d="M225 1634h166l209 -307h-113z" />
<glyph unicode="a" horiz-adv-x="995" d="M102 301q0 141 116 224t306 83h203v47q0 139 -59.5 210t-210 71t-279.5 -88v135q119 72 293 72q381 0 381 -400v-655h-125v121q-86 -131 -299 -131q-143 0 -234.5 85t-91.5 226zM236 296q0 -85 56 -138.5t172 -53.5t189.5 68t73.5 172v150h-203q-145 0 -216.5 -56.5 t-71.5 -141.5z" />
<glyph unicode="b" horiz-adv-x="1144" d="M164 0v1448h125v-565q115 172 314.5 172t324.5 -152.5t125 -383t-117 -383t-328 -152.5t-319 168v-152h-125zM289 524q0 -227 96 -324.5t229.5 -97.5t220.5 113t87 305.5t-90.5 304t-229.5 111.5q-104 0 -201 -84q-49 -43 -80.5 -128t-31.5 -200z" />
<glyph unicode="c" horiz-adv-x="966" d="M92 513q0 220 144.5 382t390.5 162q127 0 227 -56v-127q-92 61 -215 62q-190 0 -303 -124t-113 -299t108.5 -296t309.5 -121q125 0 213 66v-127q-88 -59 -227 -60q-252 0 -393.5 159t-141.5 379z" />
<glyph unicode="d" horiz-adv-x="1136" d="M92 519.5q0 230.5 125 383t324.5 152.5t314.5 -172v565h125v-1448h-125v152q-109 -168 -319.5 -168t-327.5 152.5t-117 383zM223 520.5q0 -192.5 87 -305.5t220.5 -113t229.5 97.5t96 324.5q0 115 -31.5 200t-83.5 128q-94 84 -198 84q-139 0 -229.5 -111.5t-90.5 -304z " />
<glyph unicode="e" horiz-adv-x="1062" d="M92 521.5q0 242.5 127 386t323.5 143.5t309.5 -125t113 -353q0 -70 -9 -110h-733q14 -172 118.5 -263t279 -91t278.5 69v-127q-123 -61 -287 -61q-231 0 -375.5 144.5t-144.5 387zM223 578h613v47q0 141 -79 225t-211 84t-220 -92t-103 -264z" />
<glyph unicode="f" horiz-adv-x="665" d="M61 932v106h191v111q0 141 73.5 225t206.5 84q39 0 84 -12v-123q-43 16 -97 16t-98 -48t-44 -144v-109h237v-106h-237v-932h-125v932h-191z" />
<glyph unicode="g" horiz-adv-x="1103" d="M92 521.5q0 230.5 116 382t304 151.5q223 0 324 -199v182h125v-958q0 -236 -127 -353.5t-316.5 -117.5t-314.5 59v123q127 -63 287.5 -63t253 85t92.5 267v135q-104 -190 -312 -190q-180 0 -306 133t-126 363.5zM223 522.5q0 -184.5 94.5 -282t210 -97.5t212 91.5 t96.5 293t-92.5 305t-206.5 103.5q-145 0 -229.5 -114.5t-84.5 -299z" />
<glyph unicode="h" d="M156 0v1448h125v-588q94 195 329 195q150 0 240 -92.5t90 -237.5v-725h-125v686q0 121 -61.5 184.5t-175 63.5t-205.5 -97.5t-92 -263.5v-573h-125z" />
<glyph unicode="i" horiz-adv-x="452" d="M139 1370q0 37 24.5 62.5t61.5 25.5t62.5 -25.5t25.5 -62.5t-25.5 -61.5t-62.5 -24.5t-61.5 24.5t-24.5 61.5zM164 0v1038h125v-1038h-125z" />
<glyph unicode="j" horiz-adv-x="442" d="M-96 -246q71 -33 143 -33q117 0 117 152v1165h125v-1169q0 -127 -64.5 -196.5t-179.5 -69.5q-68 0 -141 28v123zM137 1370q0 37 24.5 62.5t61.5 25.5t62.5 -25.5t25.5 -62.5t-25.5 -61.5t-62.5 -24.5t-61.5 24.5t-24.5 61.5z" />
<glyph unicode="k" horiz-adv-x="946" d="M156 0v1448h125v-1448h-125zM311 545l422 493h154l-424 -493l438 -545h-156z" />
<glyph unicode="l" horiz-adv-x="452" d="M164 0v1448h125v-1448h-125z" />
<glyph unicode="m" horiz-adv-x="1652" d="M156 0v1038h125v-170q88 186 290 187q250 0 308 -205q96 205 307 205q164 0 243.5 -91.5t79.5 -238.5v-725h-125v686q0 248 -217 248q-106 0 -189 -98.5t-83 -262.5v-573h-125v686q0 248 -217 248q-106 0 -189 -98.5t-83 -262.5v-573h-125z" />
<glyph unicode="n" d="M156 0v1038h125v-178q96 195 329 195q150 0 240 -92.5t90 -237.5v-725h-125v686q0 121 -61.5 184.5t-175 63.5t-205.5 -97.5t-92 -263.5v-573h-125z" />
<glyph unicode="o" horiz-adv-x="1148" d="M92 513q0 228 133 384t354.5 156t349.5 -152.5t128 -385t-130 -383t-353.5 -150.5t-352.5 151.5t-129 379.5zM223 516q0 -172 95.5 -294t258 -122t256 120t93.5 297t-88 297t-259 120t-263.5 -123t-92.5 -295z" />
<glyph unicode="p" horiz-adv-x="1136" d="M156 -410v1448h125v-151q109 168 319.5 168t327 -152.5t116.5 -383t-124.5 -383t-324.5 -152.5t-314 172v-566h-125zM281 514q0 -115 31.5 -200t80.5 -130q97 -82 201 -82q139 0 229 112t90 304.5t-87 305t-220 112.5t-229 -97.5t-96 -324.5z" />
<glyph unicode="q" horiz-adv-x="1136" d="M92 519.5q0 230.5 117 383t328 152.5t319 -168v151h125v-1448h-125v566q-115 -172 -314.5 -172t-324.5 152.5t-125 383zM223 518.5q0 -192.5 90.5 -304.5t229.5 -112q104 0 198 82q51 45 83 130t32 200q0 227 -96 324.5t-229.5 97.5t-220.5 -112.5t-87 -305z" />
<glyph unicode="r" horiz-adv-x="643" d="M156 0v1038h125v-176q86 188 290 189q14 0 52 -4v-127q-41 12 -82 12q-111 0 -185.5 -109.5t-74.5 -242.5v-580h-125z" />
<glyph unicode="s" horiz-adv-x="831" d="M117 779q0 120 92 195t245.5 75t243.5 -48v-124q-96 55 -260 55q-90 0 -142 -42t-52 -96.5t15 -85t52 -57.5q49 -31 172 -81t200 -118.5t77 -191.5t-89 -197.5t-261 -74.5t-287 61v129q137 -78 295 -78q104 0 158.5 43t54.5 119t-56.5 121t-183.5 95t-200.5 115.5 t-73.5 185.5z" />
<glyph unicode="t" horiz-adv-x="745" d="M51 932v106h170v260h127v-260h297v-106h-297v-645q0 -178 166 -178q82 0 139 47v-127q-59 -39 -137 -39q-295 0 -295 303v639h-170z" />
<glyph unicode="u" d="M143 317v721h125v-686q0 -119 62.5 -182.5t165.5 -63.5q137 0 222 98.5t85 256.5v577h125v-1038h-125v186q-82 -200 -328 -200h-2q-152 0 -241 91t-89 240z" />
<glyph unicode="v" horiz-adv-x="1017" d="M61 1038h132l311 -938q14 55 321 938h131l-368 -1038h-168z" />
<glyph unicode="w" horiz-adv-x="1613" d="M61 1038h138q217 -731 262 -913q10 37 262 913h147l271 -917q35 127 280 917h131l-327 -1038h-168l-260 893q-59 -223 -250 -893h-168z" />
<glyph unicode="x" horiz-adv-x="952" d="M55 0l342 535l-321 505h147l254 -409l252 409h145l-325 -508l348 -532h-149l-273 436l-278 -436h-142z" />
<glyph unicode="y" horiz-adv-x="987" d="M18 1038h144l342 -848q20 68 305 848h139l-377 -1011q-78 -211 -184.5 -291t-241.5 -80q-41 0 -77 10v123q37 -10 69 -10q219 0 305 250z" />
<glyph unicode="z" horiz-adv-x="913" d="M92 0v104l545 814h-524v120h680v-94l-553 -821h581v-123h-729z" />
<glyph unicode="{" horiz-adv-x="659" d="M102 479v125q141 0 201 88q47 70 47 168q0 49 -23.5 150.5t-23.5 158.5q0 133 73 211t177 78q45 0 86 -14v-127q-35 18 -70 18q-68 0 -101.5 -46t-33.5 -111.5t23.5 -176t23.5 -174.5q0 -111 -62.5 -188.5t-189.5 -97.5q127 -20 189.5 -99t62.5 -190q0 -63 -23.5 -174 t-23.5 -176.5t34 -111.5t101 -46q37 0 70 18v-127q-41 -14 -86 -14q-104 0 -177 78t-73 211q0 57 23.5 158.5t23.5 150.5q0 211 -182 256q-16 4 -66 4z" />
<glyph unicode="|" horiz-adv-x="438" d="M164 -397v1820h110v-1820h-110z" />
<glyph unicode="}" horiz-adv-x="659" d="M20 -238q33 -18 70 -18q68 0 101.5 46t33.5 111.5t-23.5 176t-23.5 174.5q0 111 62.5 189.5t189.5 99.5q-127 20 -189.5 97.5t-62.5 188.5q0 63 23.5 174t23.5 176.5t-33.5 111.5t-101.5 46q-37 0 -70 -18v127q41 14 86 14q104 0 177 -77.5t73 -211.5q0 -57 -23.5 -158.5 t-23.5 -150.5q0 -98 47 -168q59 -88 201 -88v-125q-49 0 -65 -4q-182 -45 -183 -256q0 -49 23.5 -150.5t23.5 -158.5q0 -133 -72.5 -211t-177.5 -78q-45 0 -86 14v127z" />
<glyph unicode="~" horiz-adv-x="1198" d="M78 494q133 186 311 186q102 0 242.5 -82t210.5 -82q115 0 180 123l96 -66q-108 -174 -276 -174q-92 0 -238.5 83t-200.5 83q-143 0 -243 -147z" />
<glyph unicode="&#xa1;" horiz-adv-x="493" d="M141 957q0 44 29 73t74 29t75.5 -29t30.5 -73t-30.5 -74.5t-74.5 -30.5t-74 30.5t-30 74.5zM184 -338v979h125v-979h-125z" />
<glyph unicode="&#xa2;" horiz-adv-x="911" d="M102 513q0 200 122 352.5t333 178.5v213h113v-210q76 -4 159 -39v-127q-88 47 -180 47q-190 0 -303 -121t-113 -294t109 -291t309 -118q98 0 178 46v-127q-84 -35 -159 -37v-213h-113v215q-215 27 -335 176t-120 349z" />
<glyph unicode="&#xa3;" horiz-adv-x="1058" d="M133 0v106q127 57 172 143.5t45 260.5q0 47 -6 102h-197v105h187q-18 176 -19 219q0 201 106.5 307.5t295.5 106.5q109 0 207 -50v-126q-100 55 -205 55q-281 0 -281 -281q0 -51 19 -231h377v-105h-365q4 -70 4 -100q0 -178 -46 -264t-126 -135h676v-113h-844z" />
<glyph unicode="&#xa4;" horiz-adv-x="1097" d="M74 248l119 119q-82 111 -82 265t88 271l-125 127l84 84l125 -127q119 90 271.5 90t266.5 -82l119 119l84 -84l-119 -119q82 -115 82 -266t-92 -270l129 -127l-84 -84l-129 127q-115 -86 -269.5 -86t-262.5 80l-121 -121zM221 641q0 -143 92.5 -236.5t235.5 -93.5 t235.5 92.5t92.5 235.5t-92.5 237.5t-235.5 94.5t-235.5 -93.5t-92.5 -236.5z" />
<glyph unicode="&#xa5;" horiz-adv-x="1171" d="M82 1339h139l359 -702l362 702h139l-317 -598h246v-102h-301l-66 -123v-72h367v-102h-367v-342h-127v342h-366v102h366v72l-65 123h-301v102h247z" />
<glyph unicode="&#xa6;" horiz-adv-x="438" d="M164 276h110v-673h-110v673zM164 750v673h110v-673h-110z" />
<glyph unicode="&#xa7;" horiz-adv-x="1001" d="M102 614q0 137 82 232q-82 78 -82 198q0 172 123 260.5t301.5 88.5t292.5 -62v-141q-49 33 -128.5 55.5t-155.5 22.5q-141 0 -221.5 -55.5t-80.5 -159.5q0 -72 41 -117q37 -39 86.5 -58.5t96.5 -38t97 -40t87 -39t94.5 -54t87.5 -71.5q76 -94 76 -230.5t-88 -230.5 q88 -92 88 -227q0 -180 -121 -275.5t-321.5 -95.5t-350.5 90v141q61 -47 158.5 -77.5t220.5 -30.5t204 63.5t81 168t-61 159.5q-68 61 -250 139q-170 74 -204 102.5t-66.5 59.5t-47.5 62q-39 84 -39 161zM229 618q0 -125 131 -200q59 -35 177 -86t176 -84q61 66 61 163 t-63.5 154.5t-180.5 108.5q-29 12 -113.5 46t-127.5 54q-60 -60 -60 -156z" />
<glyph unicode="&#xa8;" horiz-adv-x="819" d="M133 1488q0 38 24.5 62.5t62.5 24.5t63.5 -24.5t25.5 -62.5t-25.5 -63.5t-63.5 -25.5t-62.5 25.5t-24.5 63.5zM510 1488q0 38 25.5 62.5t63.5 24.5t62.5 -24.5t24.5 -62.5t-24.5 -63.5t-62.5 -25.5t-63.5 25.5t-25.5 63.5z" />
<glyph unicode="&#xa9;" horiz-adv-x="1597" d="M92 688q0 289 209 499t497.5 210t497.5 -210t209 -499t-209 -497.5t-497.5 -208.5t-497.5 208.5t-209 497.5zM213 688q0 -242 173 -415t414.5 -173t415 173t173.5 415t-173.5 416t-415 174t-414.5 -174t-173 -416zM459 682q0 162 105.5 281.5t287.5 119.5q94 0 166 -41 v-116q-70 47 -158 47q-127 0 -204.5 -82t-77.5 -206t77.5 -206t190 -82t172.5 52v-117q-61 -45 -166 -45q-184 0 -288.5 116.5t-104.5 278.5z" />
<glyph unicode="&#xaa;" horiz-adv-x="690" d="M0 1054q0 122 97.5 192.5t260.5 70.5h166v37q0 117 -49 177t-177 60t-235 -73v108q103 64 246 64q319 0 320 -336v-551h-105v110q-98 -119 -235 -118.5t-213 69t-76 190.5zM109 1051q0 -70 49 -113t142 -43t158.5 55.5t65.5 128.5v135h-141q-274 0 -274 -163z" />
<glyph unicode="&#xab;" horiz-adv-x="921" d="M55 518l307 332h144l-301 -332l301 -332h-144zM418 518l307 332h143l-301 -332l301 -332h-143z" />
<glyph unicode="&#xac;" horiz-adv-x="1095" d="M41 723v121h983v-504h-125v383h-858z" />
<glyph unicode="&#xad;" horiz-adv-x="706" d="M123 498v112h461v-112h-461z" />
<glyph unicode="&#xae;" horiz-adv-x="897" d="M20 1185.5q0 186.5 121 307.5t307.5 121t307.5 -121t121 -307.5t-121 -306t-307.5 -119.5t-307.5 119.5t-121 306zM113 1185.5q0 -151.5 92 -244.5t244.5 -93t245.5 93t93 244.5t-93 246t-245.5 94.5t-244.5 -94.5t-92 -246zM317 987v426h121q162 0 162 -135 q0 -88 -72 -119l107 -172h-98l-93 156h-43v-156h-84zM401 1210h54q61 0 61 66.5t-67 66.5h-48v-133z" />
<glyph unicode="&#xaf;" horiz-adv-x="819" d="M139 1442v92h539v-92h-539z" />
<glyph unicode="&#xb0;" horiz-adv-x="679" d="M61 1104q0 121 80 198.5t203 77.5t198.5 -73.5t75.5 -194.5t-79.5 -198.5t-202.5 -77.5t-199 73.5t-76 194.5zM170 1109q0 -75 50 -126t124 -51t120 50t46 125t-50 126t-124 51t-120 -50t-46 -125z" />
<glyph unicode="&#xb1;" horiz-adv-x="1114" d="M123 63v115h868v-115h-868zM123 680v115h366v362h117v-362h385v-115h-385v-363h-117v363h-366z" />
<glyph unicode="&#xb2;" horiz-adv-x="747" d="M102 803v84q420 319 420 534q0 86 -46 128t-120 42q-111 0 -223 -90v121q111 68 222.5 68t195.5 -69t84 -191.5t-103.5 -263t-269.5 -269.5h404v-94h-564z" />
<glyph unicode="&#xb3;" horiz-adv-x="651" d="M72 844v104q102 -55 202 -55q195 0 195 147q0 76 -55.5 118t-151.5 42h-55v94h55q74 0 126 42t52 114q0 141 -159 141q-88 0 -187 -63v108q84 53 201 53.5t186.5 -66.5t69.5 -167q0 -164 -160 -205q76 -6 132.5 -66.5t56.5 -157.5t-74 -164.5t-203 -67.5t-231 49z" />
<glyph unicode="&#xb4;" horiz-adv-x="819" d="M225 1327l209 307h166l-262 -307h-113z" />
<glyph unicode="&#xb5;" horiz-adv-x="1095" d="M156 -367v1405h125v-686q0 -117 79.5 -181.5t194.5 -64.5t187.5 98.5t72.5 256.5v577h125v-1038h-125v166q-74 -180 -289 -180q-156 0 -245 96v-449h-125z" />
<glyph unicode="&#xb6;" horiz-adv-x="1091" d="M61 1036.5q0 139.5 101.5 241.5t277.5 102h125v-1683h-123v1014q-180 0 -280.5 93t-100.5 232.5zM813 -303v1683h123v-1683h-123z" />
<glyph unicode="&#xb7;" horiz-adv-x="454" d="M123 690q0 45 29.5 75t74.5 30t75 -30t30 -75t-30 -74.5t-75 -29.5t-74.5 29.5t-29.5 74.5z" />
<glyph unicode="&#xb8;" horiz-adv-x="819" d="M262 -408q178 18 178 150q0 76 -47 154h125q37 -53 37 -151.5t-76 -172.5t-217 -80v100z" />
<glyph unicode="&#xb9;" horiz-adv-x="495" d="M20 1434v116l232 131h88v-878h-107v749z" />
<glyph unicode="&#xba;" horiz-adv-x="733" d="M-20 1239.5q0 192.5 105 323.5t285.5 131t282 -128t101.5 -325t-103.5 -323.5t-285 -126.5t-283.5 128t-102 320.5zM88 1240q0 -146 76 -248.5t205 -102.5t201.5 100.5t72.5 253t-67.5 252.5t-205 100t-210 -104.5t-72.5 -250.5z" />
<glyph unicode="&#xbb;" horiz-adv-x="927" d="M53 186l301 332l-301 332h144l307 -332l-307 -332h-144zM416 186l301 332l-301 332h143l307 -332l-307 -332h-143z" />
<glyph unicode="&#xbf;" horiz-adv-x="921" d="M82 18.5q0 176.5 122 272.5t298 112v238h125v-348q-193 0 -303.5 -68.5t-110.5 -193.5t73.5 -196t231.5 -71t322 105v-133q-55 -37 -146.5 -63.5t-183.5 -26.5q-197 0 -312.5 98t-115.5 274.5zM461 957q0 44 30.5 73t75.5 29t74 -29t29 -73t-30 -74.5t-74 -30.5 t-74.5 30.5t-30.5 74.5z" />
<glyph unicode="&#xc0;" horiz-adv-x="1304" d="M78 0l487 1380h185l477 -1380h-137l-132 383h-610l-133 -383h-137zM324 1800h165l209 -307h-112zM387 496h535l-265 778q-77 -237 -270 -778z" />
<glyph unicode="&#xc1;" horiz-adv-x="1304" d="M78 0l487 1380h185l477 -1380h-137l-132 383h-610l-133 -383h-137zM387 496h535l-265 778q-77 -237 -270 -778zM614 1493l209 307h166l-262 -307h-113z" />
<glyph unicode="&#xc2;" horiz-adv-x="1304" d="M78 0l487 1380h185l477 -1380h-137l-132 383h-610l-133 -383h-137zM350 1493l244 307h129l244 -307h-131l-179 219l-176 -219h-131zM387 496h535l-265 778q-77 -237 -270 -778z" />
<glyph unicode="&#xc3;" horiz-adv-x="1304" d="M78 0l487 1380h185l477 -1380h-137l-132 383h-610l-133 -383h-137zM328 1616q27 59 81 99t114.5 40t149.5 -47t126 -47q61 0 102 88l86 -57q-61 -131 -182 -131q-51 0 -142.5 47t-123.5 47q-86 0 -138 -101zM387 496h535l-265 778q-77 -237 -270 -778z" />
<glyph unicode="&#xc4;" horiz-adv-x="1304" d="M78 0l487 1380h185l477 -1380h-137l-132 383h-610l-133 -383h-137zM381 1650q0 38 24.5 62.5t62.5 24.5t63.5 -24.5t25.5 -62.5t-25.5 -63.5t-63.5 -25.5t-62.5 25.5t-24.5 63.5zM387 496h535l-265 778q-77 -237 -270 -778zM758 1650q0 38 25.5 62.5t63.5 24.5 t62.5 -24.5t24.5 -62.5t-24.5 -63.5t-62.5 -25.5t-63.5 25.5t-25.5 63.5z" />
<glyph unicode="&#xc5;" horiz-adv-x="1304" d="M78 0l487 1380h185l477 -1380h-137l-132 383h-610l-133 -383h-137zM387 496h535l-265 778q-77 -237 -270 -778zM457 1673q0 84 58 143.5t142 59.5t143.5 -59.5t59.5 -143.5t-59.5 -142t-143.5 -58t-142 58t-58 142zM549 1673q0 -45 31.5 -76.5t76.5 -31.5t78 31.5 t33 77.5t-31.5 78t-78 32t-78 -33t-31.5 -78z" />
<glyph unicode="&#xc6;" horiz-adv-x="1767" d="M55 0l815 1380h793v-116h-608v-516h536v-117h-536v-514h620v-117h-747v383h-508l-227 -383h-138zM487 496h441v757q-135 -246 -441 -757z" />
<glyph unicode="&#xc7;" horiz-adv-x="1226" d="M102 687.5q0 322.5 199 517t492 194.5q203 0 348 -74v-133q-90 47 -160 66.5t-193 19.5q-238 0 -396.5 -161t-158.5 -425t157 -426t417 -162q203 0 338 107v-139q-125 -88 -344 -88q-313 0 -506 190.5t-193 513zM557 -408q178 18 178 150q0 76 -47 154h125 q37 -53 37 -151.5t-76 -172.5t-217 -80v100z" />
<glyph unicode="&#xc8;" horiz-adv-x="1003" d="M164 0v1380h735v-116h-608v-516h536v-117h-536v-514h620v-117h-747zM266 1798h166l209 -307h-113z" />
<glyph unicode="&#xc9;" horiz-adv-x="1003" d="M164 0v1380h735v-116h-608v-516h536v-117h-536v-514h620v-117h-747zM512 1493l209 307h166l-262 -307h-113z" />
<glyph unicode="&#xca;" horiz-adv-x="1003" d="M164 0v1380h735v-116h-608v-516h536v-117h-536v-514h620v-117h-747zM252 1493l244 307h129l243 -307h-131l-178 219l-176 -219h-131z" />
<glyph unicode="&#xcb;" horiz-adv-x="1003" d="M164 0v1380h735v-116h-608v-516h536v-117h-536v-514h620v-117h-747zM270 1645.5q0 37.5 24.5 62.5t62.5 25t63.5 -25t25.5 -62.5t-25.5 -63.5t-63.5 -26t-62.5 26t-24.5 63.5zM647 1645.5q0 37.5 25.5 62.5t63.5 25t62.5 -25t24.5 -62.5t-24.5 -63.5t-62.5 -26t-63.5 26 t-25.5 63.5z" />
<glyph unicode="&#xcc;" horiz-adv-x="475" d="M-90 1800h166l209 -307h-113zM174 0v1380h127v-1380h-127z" />
<glyph unicode="&#xcd;" horiz-adv-x="475" d="M174 0v1380h127v-1380h-127zM190 1493l209 307h166l-262 -307h-113z" />
<glyph unicode="&#xce;" horiz-adv-x="475" d="M-70 1493l244 307h129l244 -307h-131l-178 219l-177 -219h-131zM174 0v1380h127v-1380h-127z" />
<glyph unicode="&#xcf;" horiz-adv-x="475" d="M-37 1648q0 38 24.5 62.5t62.5 24.5t63.5 -24.5t25.5 -62.5t-25.5 -63.5t-63.5 -25.5t-62.5 25.5t-24.5 63.5zM174 0v1380h127v-1380h-127zM340 1648q0 38 25.5 62.5t63.5 24.5t62.5 -24.5t24.5 -62.5t-24.5 -63.5t-62.5 -25.5t-63.5 25.5t-25.5 63.5z" />
<glyph unicode="&#xd0;" horiz-adv-x="1484" d="M123 641v109h184v630h393q303 0 498 -188t195 -494q0 -403 -303 -596q-158 -102 -379 -102h-404v641h-184zM434 117h277q141 0 249.5 49t172.5 133q127 168 127 401.5t-157 398.5t-403 165h-266v-514h377v-109h-377v-524z" />
<glyph unicode="&#xd1;" horiz-adv-x="1366" d="M164 0v1380h174l741 -1230q-4 213 -4 645v585h127v-1380h-174l-741 1231q4 -221 4 -647v-584h-127zM373 1614q27 59 81 99t114.5 40t149.5 -47t126 -47q61 0 102 88l86 -57q-61 -131 -182 -131q-51 0 -142.5 47t-123.5 47q-86 0 -138 -101z" />
<glyph unicode="&#xd2;" horiz-adv-x="1415" d="M102 697.5q0 324.5 163 518t445.5 193.5t442.5 -191.5t160 -520t-162 -521t-438.5 -192.5t-443.5 194.5t-167 519zM233 698.5q0 -274.5 130.5 -433.5t351.5 -159t344 157t123 434.5t-124 433t-348.5 155.5t-350.5 -156.5t-126 -431zM408 1800h165l209 -307h-112z" />
<glyph unicode="&#xd3;" horiz-adv-x="1415" d="M102 697.5q0 324.5 163 518t445.5 193.5t442.5 -191.5t160 -520t-162 -521t-438.5 -192.5t-443.5 194.5t-167 519zM233 698.5q0 -274.5 130.5 -433.5t351.5 -159t344 157t123 434.5t-124 433t-348.5 155.5t-350.5 -156.5t-126 -431zM670 1493l209 307h165l-262 -307h-112 z" />
<glyph unicode="&#xd4;" horiz-adv-x="1415" d="M102 697.5q0 324.5 163 518t445.5 193.5t442.5 -191.5t160 -520t-162 -521t-438.5 -192.5t-443.5 194.5t-167 519zM233 698.5q0 -274.5 130.5 -433.5t351.5 -159t344 157t123 434.5t-124 433t-348.5 155.5t-350.5 -156.5t-126 -431zM416 1493l243 307h129l244 -307h-131 l-178 219l-176 -219h-131z" />
<glyph unicode="&#xd5;" horiz-adv-x="1415" d="M102 697.5q0 324.5 163 518t445.5 193.5t442.5 -191.5t160 -520t-162 -521t-438.5 -192.5t-443.5 194.5t-167 519zM233 698.5q0 -274.5 130.5 -433.5t351.5 -159t344 157t123 434.5t-124 433t-348.5 155.5t-350.5 -156.5t-126 -431zM383 1618q27 59 81 99t114.5 40 t149.5 -47t126 -47q61 0 102 88l86 -57q-61 -131 -182 -131q-51 0 -142 47t-124 47q-86 0 -137 -101z" />
<glyph unicode="&#xd6;" horiz-adv-x="1415" d="M102 697.5q0 324.5 163 518t445.5 193.5t442.5 -191.5t160 -520t-162 -521t-438.5 -192.5t-443.5 194.5t-167 519zM233 698.5q0 -274.5 130.5 -433.5t351.5 -159t344 157t123 434.5t-124 433t-348.5 155.5t-350.5 -156.5t-126 -431zM436 1650q0 38 24.5 62.5t62.5 24.5 t63.5 -24.5t25.5 -62.5t-25.5 -63.5t-63.5 -25.5t-62.5 25.5t-24.5 63.5zM813 1650q0 38 25.5 62.5t63.5 24.5t62.5 -24.5t24.5 -62.5t-24.5 -63.5t-62.5 -25.5t-63.5 25.5t-25.5 63.5z" />
<glyph unicode="&#xd7;" horiz-adv-x="985" d="M129 975l82 82l281 -277l280 279l82 -82l-281 -279l271 -268l-82 -82l-270 268l-271 -268l-82 82l271 268z" />
<glyph unicode="&#xd8;" horiz-adv-x="1359" d="M84 -18l158 211q-156 190 -156 509.5t163 513t441 193.5q219 0 371 -119l90 119h147l-151 -203q150 -195 149.5 -516t-162 -513.5t-440.5 -192.5q-213 0 -370 125l-95 -127h-145zM217 714q0 -259 105 -415l663 889q-117 98 -295 98q-221 0 -347 -156.5t-126 -415.5z M401 211q121 -105 293 -105q225 0 348 157t123 419t-100 416z" />
<glyph unicode="&#xd9;" horiz-adv-x="1308" d="M164 506v874h127v-872q0 -207 97 -304.5t263 -97.5q367 0 367 412v862h127v-858q0 -266 -129 -402t-362.5 -136t-361.5 133t-128 389zM340 1800h166l209 -307h-113z" />
<glyph unicode="&#xda;" horiz-adv-x="1308" d="M164 506v874h127v-872q0 -207 97 -304.5t263 -97.5q367 0 367 412v862h127v-858q0 -266 -129 -402t-362.5 -136t-361.5 133t-128 389zM623 1493l208 307h166l-262 -307h-112z" />
<glyph unicode="&#xdb;" horiz-adv-x="1308" d="M164 506v874h127v-872q0 -207 97 -304.5t263 -97.5q367 0 367 412v862h127v-858q0 -266 -129 -402t-362.5 -136t-361.5 133t-128 389zM352 1493l244 307h129l244 -307h-131l-179 219l-176 -219h-131z" />
<glyph unicode="&#xdc;" horiz-adv-x="1308" d="M164 506v874h127v-872q0 -207 97 -304.5t263 -97.5q367 0 367 412v862h127v-858q0 -266 -129 -402t-362.5 -136t-361.5 133t-128 389zM379 1650q0 38 24.5 62.5t62.5 24.5t63.5 -24.5t25.5 -62.5t-25.5 -63.5t-63.5 -25.5t-62.5 25.5t-24.5 63.5zM756 1650 q0 38 25.5 62.5t63.5 24.5t62.5 -24.5t24.5 -62.5t-24.5 -63.5t-62.5 -25.5t-63.5 25.5t-25.5 63.5z" />
<glyph unicode="&#xdd;" horiz-adv-x="1187" d="M61 1380h146l108 -202l277 -533q16 39 389 735h145l-471 -864v-516h-127v516zM573 1491l209 307h166l-262 -307h-113z" />
<glyph unicode="&#xde;" d="M164 0v1380h127v-262h184q254 0 386 -120.5t132 -309t-128 -307.5t-367 -119h-207v-262h-127zM291 375h221q174 0 263 84t89 228t-93 231.5t-282 87.5h-198v-631z" />
<glyph unicode="&#xdf;" horiz-adv-x="1077" d="M164 0v1034q0 190 103.5 284.5t265 94.5t255 -88t93.5 -217q0 -94 -43 -165t-85 -121t-42 -96t47 -97t103.5 -90t103.5 -111t47 -160q0 -123 -88 -202.5t-248 -79.5q-94 0 -160 20v131q76 -35 167 -35t146.5 43t55.5 105.5t-32 110t-77 84t-92 75.5q-109 88 -109 201 q0 57 28 109.5t61.5 85t61.5 84t28 122t-61.5 120.5t-160.5 50q-242 0 -241 -258v-1034h-127z" />
<glyph unicode="&#xe0;" horiz-adv-x="995" d="M102 301q0 141 116 224t306 83h203v47q0 139 -59.5 210t-210 71t-279.5 -88v135q119 72 293 72q381 0 381 -400v-655h-125v121q-86 -131 -299 -131q-143 0 -234.5 85t-91.5 226zM203 1458h166l209 -307h-113zM236 296q0 -85 56 -138.5t172 -53.5t189.5 68t73.5 172v150 h-203q-145 0 -216.5 -56.5t-71.5 -141.5z" />
<glyph unicode="&#xe1;" horiz-adv-x="995" d="M102 301q0 141 116 224t306 83h203v47q0 139 -59.5 210t-210 71t-279.5 -88v135q119 72 293 72q381 0 381 -400v-655h-125v121q-86 -131 -299 -131q-143 0 -234.5 85t-91.5 226zM236 296q0 -85 56 -138.5t172 -53.5t189.5 68t73.5 172v150h-203q-145 0 -216.5 -56.5 t-71.5 -141.5zM473 1151l209 307h166l-262 -307h-113z" />
<glyph unicode="&#xe2;" horiz-adv-x="995" d="M102 301q0 141 116 224t306 83h203v47q0 139 -59.5 210t-210 71t-279.5 -88v135q119 72 293 72q381 0 381 -400v-655h-125v121q-86 -131 -299 -131q-143 0 -234.5 85t-91.5 226zM211 1149l244 307h129l243 -307h-131l-178 219l-176 -219h-131zM236 296q0 -85 56 -138.5 t172 -53.5t189.5 68t73.5 172v150h-203q-145 0 -216.5 -56.5t-71.5 -141.5z" />
<glyph unicode="&#xe3;" horiz-adv-x="995" d="M102 301q0 141 116 224t306 83h203v47q0 139 -59.5 210t-210 71t-279.5 -88v135q119 72 293 72q381 0 381 -400v-655h-125v121q-86 -131 -299 -131q-143 0 -234.5 85t-91.5 226zM180 1274q27 59 81 99t114.5 40t149.5 -47t126 -47q61 0 103 88l86 -57q-62 -131 -183 -131 q-51 0 -142 47t-124 47q-86 0 -137 -101zM236 296q0 -85 56 -138.5t172 -53.5t189.5 68t73.5 172v150h-203q-145 0 -216.5 -56.5t-71.5 -141.5z" />
<glyph unicode="&#xe4;" horiz-adv-x="995" d="M102 301q0 141 116 224t306 83h203v47q0 139 -59.5 210t-210 71t-279.5 -88v135q119 72 293 72q381 0 381 -400v-655h-125v121q-86 -131 -299 -131q-143 0 -234.5 85t-91.5 226zM233 1299.5q0 37.5 25 62t62.5 24.5t63.5 -24.5t26 -62t-26 -63.5t-63.5 -26t-62.5 26 t-25 63.5zM236 296q0 -85 56 -138.5t172 -53.5t189.5 68t73.5 172v150h-203q-145 0 -216.5 -56.5t-71.5 -141.5zM610 1299.5q0 37.5 26 62t63.5 24.5t62 -24.5t24.5 -62t-24.5 -63.5t-62 -26t-63.5 26t-26 63.5z" />
<glyph unicode="&#xe5;" horiz-adv-x="995" d="M102 301q0 141 116 224t306 83h203v47q0 139 -59.5 210t-210 71t-279.5 -88v135q119 72 293 72q381 0 381 -400v-655h-125v121q-86 -131 -299 -131q-143 0 -234.5 85t-91.5 226zM236 296q0 -85 56 -138.5t172 -53.5t189.5 68t73.5 172v150h-203q-145 0 -216.5 -56.5 t-71.5 -141.5zM317 1332q0 83 58.5 142.5t142.5 59.5t143.5 -59.5t59.5 -143.5t-59.5 -142.5t-143.5 -58.5t-142.5 59.5t-58.5 142.5zM410 1331q0 -45 31.5 -76.5t76.5 -31.5t78 31.5t33 76.5t-32 78t-78 33t-77.5 -33t-31.5 -78z" />
<glyph unicode="&#xe6;" horiz-adv-x="1683" d="M113 297q0 145 116.5 229t311.5 84h196v45q0 139 -59.5 210t-212 71t-277.5 -86v129q121 76 293 76q270 0 346 -195q125 190 367 191q199 0 303.5 -127t104.5 -361q0 -59 -9 -100h-729q15 -172 121.5 -263t271 -91t269.5 69v-127q-123 -61 -271.5 -61t-263 60.5 t-178.5 158.5q-41 -100 -139.5 -159.5t-238.5 -59.5t-231 81t-91 226zM244 295q0 -84 57 -134t168 -50t189.5 69.5t78.5 184.5v124h-168q-326 0 -325 -194zM864 578h609v47q0 149 -79 229t-206 80t-217 -90t-107 -266z" />
<glyph unicode="&#xe7;" horiz-adv-x="966" d="M92 513q0 220 144.5 382t390.5 162q127 0 227 -56v-127q-92 61 -215 62q-190 0 -303 -124t-113 -299t108.5 -296t309.5 -121q125 0 213 66v-127q-88 -59 -227 -60q-252 0 -393.5 159t-141.5 379zM385 -408q178 18 178 150q0 76 -47 154h125q37 -53 37 -151.5t-76 -172.5 t-217 -80v100z" />
<glyph unicode="&#xe8;" horiz-adv-x="1062" d="M92 521.5q0 242.5 127 386t323.5 143.5t309.5 -125t113 -353q0 -70 -9 -110h-733q14 -172 118.5 -263t279 -91t278.5 69v-127q-123 -61 -287 -61q-231 0 -375.5 144.5t-144.5 387zM223 578h613v47q0 141 -79 225t-211 84t-220 -92t-103 -264zM268 1458h166l209 -307h-113 z" />
<glyph unicode="&#xe9;" horiz-adv-x="1062" d="M92 521.5q0 242.5 127 386t323.5 143.5t309.5 -125t113 -353q0 -70 -9 -110h-733q14 -172 118.5 -263t279 -91t278.5 69v-127q-123 -61 -287 -61q-231 0 -375.5 144.5t-144.5 387zM223 578h613v47q0 141 -79 225t-211 84t-220 -92t-103 -264zM528 1151l209 307h166 l-262 -307h-113z" />
<glyph unicode="&#xea;" horiz-adv-x="1062" d="M92 521.5q0 242.5 127 386t323.5 143.5t309.5 -125t113 -353q0 -70 -9 -110h-733q14 -172 118.5 -263t279 -91t278.5 69v-127q-123 -61 -287 -61q-231 0 -375.5 144.5t-144.5 387zM223 578h613v47q0 141 -79 225t-211 84t-220 -92t-103 -264zM274 1151l244 307h129 l244 -307h-131l-178 219l-176 -219h-132z" />
<glyph unicode="&#xeb;" horiz-adv-x="1062" d="M92 521.5q0 242.5 127 386t323.5 143.5t309.5 -125t113 -353q0 -70 -9 -110h-733q14 -172 118.5 -263t279 -91t278.5 69v-127q-123 -61 -287 -61q-231 0 -375.5 144.5t-144.5 387zM223 578h613v47q0 141 -79 225t-211 84t-220 -92t-103 -264zM299 1305.5 q0 37.5 24.5 62.5t62.5 25t63.5 -25t25.5 -62.5t-25.5 -63t-63.5 -25.5t-62.5 25.5t-24.5 63zM676 1305.5q0 37.5 25.5 62.5t63.5 25t62.5 -25t24.5 -62.5t-24.5 -63t-62.5 -25.5t-63.5 25.5t-25.5 63z" />
<glyph unicode="&#xec;" horiz-adv-x="452" d="M-100 1456h166l208 -307h-112zM164 0v1038h125v-1038h-125z" />
<glyph unicode="&#xed;" horiz-adv-x="452" d="M164 0v1038h125v-1038h-125zM182 1151l209 307h166l-262 -307h-113z" />
<glyph unicode="&#xee;" horiz-adv-x="452" d="M-80 1151l244 307h129l244 -307h-131l-179 219l-176 -219h-131zM164 0v1038h125v-1038h-125z" />
<glyph unicode="&#xef;" horiz-adv-x="452" d="M-49 1310q0 38 24.5 62.5t62.5 24.5t63.5 -24.5t25.5 -62.5t-25.5 -63.5t-63.5 -25.5t-62.5 25.5t-24.5 63.5zM164 0v1038h125v-1038h-125zM328 1310q0 38 25.5 62.5t63.5 24.5t62.5 -24.5t24.5 -62.5t-24.5 -63.5t-62.5 -25.5t-63.5 25.5t-25.5 63.5z" />
<glyph unicode="&#xf0;" horiz-adv-x="1036" d="M80 424q0 188 124 302t307 114t304 -150q-39 227 -199 420l-284 -147v114l213 111q-133 127 -275 192h222q90 -55 163 -135l254 131v-114l-184 -95q219 -278 219 -626q0 -279 -118.5 -419t-313.5 -140t-313.5 127t-118.5 315zM211 412.5q0 -144.5 83 -228.5t215 -84 t224 109.5t94 327.5q-127 180 -335 180q-119 0 -200 -80t-81 -224.5z" />
<glyph unicode="&#xf1;" d="M156 0v1038h125v-178q96 195 329 195q150 0 240 -92.5t90 -237.5v-725h-125v686q0 121 -61.5 184.5t-175 63.5t-205.5 -97.5t-92 -263.5v-573h-125zM238 1272q27 59 81 99t114.5 40t149.5 -47t126 -47q61 0 102 88l86 -57q-61 -131 -182 -131q-51 0 -142.5 47t-123.5 47 q-86 0 -138 -101z" />
<glyph unicode="&#xf2;" horiz-adv-x="1148" d="M92 513q0 228 133 384t354.5 156t349.5 -152.5t128 -385t-130 -383t-353.5 -150.5t-352.5 151.5t-129 379.5zM223 516q0 -172 95.5 -294t258 -122t256 120t93.5 297t-88 297t-259 120t-263.5 -123t-92.5 -295zM258 1458h166l209 -307h-113z" />
<glyph unicode="&#xf3;" horiz-adv-x="1148" d="M92 513q0 228 133 384t354.5 156t349.5 -152.5t128 -385t-130 -383t-353.5 -150.5t-352.5 151.5t-129 379.5zM223 516q0 -172 95.5 -294t258 -122t256 120t93.5 297t-88 297t-259 120t-263.5 -123t-92.5 -295zM541 1151l209 307h165l-262 -307h-112z" />
<glyph unicode="&#xf4;" horiz-adv-x="1148" d="M92 513q0 228 133 384t354.5 156t349.5 -152.5t128 -385t-130 -383t-353.5 -150.5t-352.5 151.5t-129 379.5zM223 516q0 -172 95.5 -294t258 -122t256 120t93.5 297t-88 297t-259 120t-263.5 -123t-92.5 -295zM272 1149l244 307h129l244 -307h-131l-178 219l-177 -219 h-131z" />
<glyph unicode="&#xf5;" horiz-adv-x="1148" d="M92 513q0 228 133 384t354.5 156t349.5 -152.5t128 -385t-130 -383t-353.5 -150.5t-352.5 151.5t-129 379.5zM223 516q0 -172 95.5 -294t258 -122t256 120t93.5 297t-88 297t-259 120t-263.5 -123t-92.5 -295zM250 1272q27 59 81 99t114.5 40t149.5 -47t126 -47 q61 0 102 88l86 -57q-61 -131 -182 -131q-51 0 -142 47t-124 47q-86 0 -137 -101z" />
<glyph unicode="&#xf6;" horiz-adv-x="1148" d="M92 513q0 228 133 384t354.5 156t349.5 -152.5t128 -385t-130 -383t-353.5 -150.5t-352.5 151.5t-129 379.5zM223 516q0 -172 95.5 -294t258 -122t256 120t93.5 297t-88 297t-259 120t-263.5 -123t-92.5 -295zM313 1301.5q0 37.5 24.5 62.5t62.5 25t63.5 -25t25.5 -62.5 t-25.5 -63.5t-63.5 -26t-62.5 26t-24.5 63.5zM690 1301.5q0 37.5 25.5 62.5t63.5 25t62.5 -25t24.5 -62.5t-24.5 -63.5t-62.5 -26t-63.5 26t-25.5 63.5z" />
<glyph unicode="&#xf7;" horiz-adv-x="1114" d="M123 639v115h868v-115h-868zM463 330q0 39 27.5 66.5t66.5 27.5t66.5 -27.5t27.5 -66.5t-27.5 -66.5t-66.5 -27.5t-66.5 27.5t-27.5 66.5zM463 1063q0 39 27.5 66.5t66.5 27.5t66.5 -27.5t27.5 -66.5t-27.5 -66.5t-66.5 -27.5t-66.5 27.5t-27.5 66.5z" />
<glyph unicode="&#xf8;" horiz-adv-x="1153" d="M127 -18l123 159q-123 147 -123 373.5t133 382.5t344 156q164 0 279 -80l61 80h148l-123 -160q123 -145 123 -377.5t-130.5 -383t-357.5 -150.5q-158 0 -270 81l-62 -81h-145zM252 526q0 -166 76 -280l485 635q-86 59 -209 59q-164 0 -258 -124t-94 -290zM408 160 q87 -66 196 -66q172 0 267.5 121t95.5 295t-72 285z" />
<glyph unicode="&#xf9;" d="M143 317v721h125v-686q0 -119 62.5 -182.5t165.5 -63.5q137 0 222 98.5t85 256.5v577h125v-1038h-125v186q-82 -201 -330 -200q-152 0 -241 91t-89 240zM223 1456h166l209 -307h-113z" />
<glyph unicode="&#xfa;" d="M143 317v721h125v-686q0 -119 62.5 -182.5t165.5 -63.5q137 0 222 98.5t85 256.5v577h125v-1038h-125v186q-82 -201 -330 -200q-152 0 -241 91t-89 240zM494 1151l208 307h166l-262 -307h-112z" />
<glyph unicode="&#xfb;" d="M143 317v721h125v-686q0 -119 62.5 -182.5t165.5 -63.5q137 0 222 98.5t85 256.5v577h125v-1038h-125v186q-82 -201 -330 -200q-152 0 -241 91t-89 240zM231 1151l244 307h129l244 -307h-131l-178 219l-177 -219h-131z" />
<glyph unicode="&#xfc;" d="M143 317v721h125v-686q0 -119 62.5 -182.5t165.5 -63.5q137 0 222 98.5t85 256.5v577h125v-1038h-125v186q-82 -201 -330 -200q-152 0 -241 91t-89 240zM268 1301.5q0 37.5 24.5 62.5t62.5 25t63.5 -25t25.5 -62.5t-25.5 -63.5t-63.5 -26t-62.5 26t-24.5 63.5z M645 1301.5q0 37.5 25.5 62.5t63.5 25t62.5 -25t24.5 -62.5t-24.5 -63.5t-62.5 -26t-63.5 26t-25.5 63.5z" />
<glyph unicode="&#xfd;" horiz-adv-x="987" d="M18 1038h144l342 -848q20 68 305 848h139l-377 -1011q-78 -211 -184.5 -291t-241.5 -80q-41 0 -77 10v123q37 -10 69 -10q219 0 305 250zM455 1151l209 307h165l-262 -307h-112z" />
<glyph unicode="&#xfe;" horiz-adv-x="1136" d="M156 -410v1858h125v-561q109 168 319.5 168t327 -152.5t116.5 -383t-124.5 -383t-324.5 -152.5t-314 172v-566h-125zM281 514q0 -115 31.5 -200t80.5 -130q97 -82 201 -82q139 0 229 112t90 304.5t-87 305t-220 112.5t-229 -97.5t-96 -324.5z" />
<glyph unicode="&#xff;" horiz-adv-x="987" d="M18 1038h144l342 -848q20 68 305 848h139l-377 -1011q-78 -211 -184.5 -291t-241.5 -80q-41 0 -77 10v123q37 -10 69 -10q219 0 305 250zM236 1301.5q0 37.5 24.5 62.5t62 25t63.5 -25t26 -62.5t-26 -63.5t-63.5 -26t-62 26t-24.5 63.5zM612 1301.5q0 37.5 26 62.5 t63.5 25t62 -25t24.5 -62.5t-24.5 -63.5t-62 -26t-63.5 26t-26 63.5z" />
<glyph unicode="&#x152;" horiz-adv-x="2004" d="M102 697.5q0 326.5 159 519t435 192.5q311 0 469 -229v200h736v-116h-609v-516h537v-117h-537v-514h621v-117h-748v217q-158 -233 -465 -233q-272 0 -435 193.5t-163 520zM233 697.5q0 -275.5 126 -433.5t346.5 -158t340 156t119.5 434.5t-120.5 434t-345 155.5 t-345.5 -156.5t-121 -432z" />
<glyph unicode="&#x153;" horiz-adv-x="1835" d="M92 513q0 230 124 385t333 155q279 0 393 -234q123 231 395 232q199 0 303.5 -127t104.5 -361q0 -59 -8 -100h-729q14 -172 120.5 -263t271.5 -91t269 69v-127q-123 -61 -273.5 -61t-266 61.5t-183.5 173.5q-115 -244 -397 -243q-217 0 -337 150.5t-120 380.5zM223 516 q0 -176 86 -296t247 -120t239.5 117t78.5 297q0 420 -325 420q-160 0 -243 -121t-83 -297zM1008 578h608v47q0 150 -79 229.5t-206 79.5t-217 -90t-106 -266z" />
<glyph unicode="&#x178;" horiz-adv-x="1187" d="M61 1380h146l108 -202l277 -533q16 39 389 735h145l-471 -864v-516h-127v516zM315 1648q0 38 25 62.5t62.5 24.5t63.5 -24.5t26 -62.5t-26 -63.5t-63.5 -25.5t-62.5 25.5t-25 63.5zM692 1648q0 38 25.5 62.5t63.5 24.5t62.5 -24.5t24.5 -62.5t-24.5 -63.5t-62.5 -25.5 t-63.5 25.5t-25.5 63.5z" />
<glyph unicode="&#x2c6;" horiz-adv-x="819" d="M100 1327l244 307h129l244 -307h-131l-178 219l-177 -219h-131z" />
<glyph unicode="&#x2dc;" horiz-adv-x="819" d="M102 1423q27 59 81.5 99.5t114.5 40.5t149.5 -47.5t125.5 -47.5q61 0 103 88l86 -57q-61 -131 -182 -131q-51 0 -142.5 47t-124.5 47q-86 0 -137 -100z" />
<glyph unicode="&#x2000;" horiz-adv-x="938" />
<glyph unicode="&#x2001;" horiz-adv-x="1876" />
<glyph unicode="&#x2002;" horiz-adv-x="938" />
<glyph unicode="&#x2003;" horiz-adv-x="1876" />
<glyph unicode="&#x2004;" horiz-adv-x="625" />
<glyph unicode="&#x2005;" horiz-adv-x="469" />
<glyph unicode="&#x2006;" horiz-adv-x="312" />
<glyph unicode="&#x2007;" horiz-adv-x="312" />
<glyph unicode="&#x2008;" horiz-adv-x="234" />
<glyph unicode="&#x2009;" horiz-adv-x="375" />
<glyph unicode="&#x200a;" horiz-adv-x="104" />
<glyph unicode="&#x2010;" horiz-adv-x="706" d="M123 498v112h461v-112h-461z" />
<glyph unicode="&#x2011;" horiz-adv-x="706" d="M123 498v112h461v-112h-461z" />
<glyph unicode="&#x2012;" horiz-adv-x="706" d="M123 498v112h461v-112h-461z" />
<glyph unicode="&#x2013;" horiz-adv-x="1097" d="M123 498v112h852v-112h-852z" />
<glyph unicode="&#x2014;" horiz-adv-x="1677" d="M123 502v112h1431v-112h-1431z" />
<glyph unicode="&#x2018;" horiz-adv-x="321" d="M14 985l236 438h92l-162 -438h-166z" />
<glyph unicode="&#x2019;" horiz-adv-x="323" d="M16 985l162 438h166l-235 -438h-93z" />
<glyph unicode="&#x201a;" horiz-adv-x="323" d="M8 -250l162 438h166l-236 -438h-92z" />
<glyph unicode="&#x201c;" horiz-adv-x="593" d="M16 985l236 438h92l-162 -438h-166zM287 985l235 438h92l-161 -438h-166z" />
<glyph unicode="&#x201d;" horiz-adv-x="591" d="M16 985l162 438h166l-235 -438h-93zM287 985l162 438h165l-235 -438h-92z" />
<glyph unicode="&#x201e;" horiz-adv-x="591" d="M8 -250l162 438h166l-236 -438h-92zM279 -250l161 438h166l-235 -438h-92z" />
<glyph unicode="&#x2022;" horiz-adv-x="931" d="M195 729q0 117 76.5 194.5t192.5 77.5t194.5 -78.5t78.5 -193.5t-77.5 -193.5t-193.5 -78.5t-193.5 77.5t-77.5 194.5z" />
<glyph unicode="&#x2026;" horiz-adv-x="1355" d="M61 88q0 45 30 75t75 30t74.5 -30t29.5 -75t-29.5 -74.5t-74.5 -29.5t-75 29.5t-30 74.5zM573 88q0 45 30 75t75 30t74.5 -30t29.5 -75t-29.5 -74.5t-74.5 -29.5t-75 29.5t-30 74.5zM1085 88q0 45 30 75t75 30t74.5 -30t29.5 -75t-29.5 -74.5t-74.5 -29.5t-75 29.5 t-30 74.5z" />
<glyph unicode="&#x202f;" horiz-adv-x="375" />
<glyph unicode="&#x2039;" horiz-adv-x="573" d="M61 518l308 332h143l-301 -332l301 -332h-143z" />
<glyph unicode="&#x203a;" horiz-adv-x="567" d="M61 186l301 332l-301 332h144l307 -332l-307 -332h-144z" />
<glyph unicode="&#x205f;" horiz-adv-x="469" />
<glyph unicode="&#x20ac;" horiz-adv-x="1191" d="M113 463v100h198q-6 49 -6 111.5t8 113.5h-200v101h217q53 217 201.5 339t353.5 122q147 0 225 -39v-121q-76 39 -224.5 39t-262 -87t-158.5 -253h416v-101h-437q-8 -51 -8 -113.5t6 -111.5h439v-100h-420q45 -170 160.5 -264.5t263 -94.5t225.5 43v-120 q-84 -43 -240 -43q-197 0 -346 129t-198 350h-213z" />
<glyph unicode="&#x2122;" horiz-adv-x="1388" d="M0 1286v94h459v-94h-174v-610h-105v610h-180zM522 678l56 702h147l129 -368l64 -201q37 111 206 569h152l47 -702h-106l-23 342l-10 231q-37 -109 -207 -557h-117l-194 557q-8 -68 -35 -573h-109z" />
<glyph unicode="&#x25fc;" horiz-adv-x="1044" d="M0 0v1044h1044v-1044h-1044z" />
<glyph unicode="&#xfb01;" horiz-adv-x="1019" d="M61 932v106h191v111q0 141 74.5 225t213 84t259.5 -65v-123q-133 70 -262 69q-160 0 -160 -192v-109h487v-1038h-125v932h-362v-932h-125v932h-191z" />
<glyph unicode="&#xfb02;" horiz-adv-x="999" d="M61 932v106h191v111q0 143 74.5 226t224 83t293.5 -92v-1366h-125v1300q-96 39 -172 39q-170 0 -170 -192v-109h237v-106h-237v-932h-125v932h-191z" />
<glyph unicode="&#xfb03;" horiz-adv-x="1507" d="M61 932v106h191v111q0 143 77 226t219 83t277 -72q78 72 209 72t252 -65v-123q-133 70 -262 69q-160 0 -160 -192v-109h488v-1038h-125v932h-363v-932h-125v932h-362v-932h-125v932h-191zM377 1038h362v111q0 76 23 139q-98 51 -215 51q-170 0 -170 -192v-109z" />
<glyph unicode="&#xfb04;" horiz-adv-x="1488" d="M61 932v106h191v111q0 143 77 226t219 83t277 -72q78 72 221.5 72t286.5 -92v-1366h-125v1300q-96 39 -172 39q-170 0 -170 -192v-109h238v-106h-238v-932h-125v932h-364v-932h-125v932h-191zM377 1038h364v111q0 76 23 139q-98 51 -217 51q-170 0 -170 -192v-109z" />
</font>
</defs>
</svg>
