<?xml version="1.0" standalone="no"?>
<!DOCTYPE svg PUBLIC "-//W3C//DTD SVG 1.1//EN" "http://www.w3.org/Graphics/SVG/1.1/DTD/svg11.dtd" >
<svg xmlns="http://www.w3.org/2000/svg">
<metadata></metadata>
<defs>
<font id="hindmedium" horiz-adv-x="1155" >
<font-face units-per-em="2048" ascent="1638" descent="-410" />
<missing-glyph horiz-adv-x="503" />
<glyph horiz-adv-x="0" />
<glyph horiz-adv-x="682" />
<glyph horiz-adv-x="0" />
<glyph horiz-adv-x="0" />
<glyph unicode="&#xd;" horiz-adv-x="681" />
<glyph unicode=" "  horiz-adv-x="503" />
<glyph unicode="&#x09;" horiz-adv-x="503" />
<glyph unicode="&#xa0;" horiz-adv-x="503" />
<glyph unicode="!" horiz-adv-x="536" d="M127 122.5q0 59.5 40 100.5t98.5 41t100.5 -42t42 -100.5t-41 -98t-100.5 -39.5t-99.5 39.5t-40 99zM170 438v942h197v-942h-197z" />
<glyph unicode="&#x22;" horiz-adv-x="659" d="M88 895v500h174v-500h-174zM397 895v500h174v-500h-174z" />
<glyph unicode="#" horiz-adv-x="1480" d="M104 338v160h252l78 376h-231v164h266l72 342h180l-72 -342h340l72 342h176l-72 -342h213v-164h-248l-79 -376h231v-160h-264l-72 -338h-178l72 338h-340l-72 -338h-176l72 338h-220zM535 498h339l80 376h-340z" />
<glyph unicode="$" horiz-adv-x="1038" d="M96 1016.5q0 154.5 108.5 255t287.5 117.5v219h174v-224q123 -18 206 -59v-209q-135 86 -311 86q-113 0 -176 -50t-63 -132q0 -90 88 -148q59 -41 162.5 -87t152.5 -73.5t106 -74.5q113 -92 113 -259t-104.5 -268.5t-278.5 -119.5v-219h-172v219q-168 16 -285 84v219 q162 -121 375 -121q113 0 179.5 52t66.5 145q0 49 -16.5 73.5t-26.5 38t-33.5 28.5t-37 24.5t-45 24.5t-46 22.5t-53.5 23.5q-195 82 -283 170t-88 242.5z" />
<glyph unicode="%" horiz-adv-x="1810" d="M98 1064q0 142 100.5 242.5t243 100.5t242.5 -100.5t100 -242.5t-100 -242.5t-242.5 -100.5t-243 100.5t-100.5 242.5zM268 1064q0 -71 50.5 -122t122 -51t122.5 51t51 123t-51 122t-122.5 50t-122 -51t-50.5 -122zM434 -2l746 1388h190l-747 -1388h-189zM1026 326.5 q0 142.5 100.5 244t242.5 101.5t242.5 -101.5t100.5 -244t-100.5 -241.5t-242.5 -99t-242.5 99t-100.5 241.5zM1196 327.5q0 -71.5 51 -122.5t123 -51t122 51t50 122.5t-50 123t-122 51.5t-123 -51.5t-51 -123z" />
<glyph unicode="&#x26;" horiz-adv-x="1464" d="M125 365q0 242 317 354q-176 182 -176 342t110.5 256t292 96t293 -101.5t111.5 -262.5q0 -119 -72.5 -213.5t-242.5 -171.5l303 -291q47 86 53 194h189q-8 -180 -105 -323q59 -55 152.5 -143.5t107.5 -100.5h-262l-121 113q-168 -129 -412.5 -129t-391 108.5 t-146.5 272.5zM332 360q0 -86 92 -143t243.5 -57t272.5 80l-377 356q-121 -45 -176 -97.5t-55 -138.5zM473 1070q0 -73 39 -135.5t125 -154.5q231 113 231 262q0 86 -53 140.5t-144 54.5t-144.5 -47t-53.5 -120z" />
<glyph unicode="'" horiz-adv-x="350" d="M88 895v500h174v-500h-174z" />
<glyph unicode="(" horiz-adv-x="651" d="M127 531q0 516 317 917h218q-158 -205 -239 -445.5t-81 -474t86 -477.5t250 -452h-219q-332 416 -332 932z" />
<glyph unicode=")" horiz-adv-x="651" d="M-27 -401q164 209 251 453.5t87 476t-82 472t-237 447.5h217q315 -399 315 -915.5t-329 -933.5h-222z" />
<glyph unicode="*" horiz-adv-x="894" d="M59 1038l50 156l190 -61q51 -18 84 -48q-18 47 -18 97v198h163v-198q0 -53 -16 -92q37 29 84 45l188 59l52 -156l-189 -61q-37 -12 -82 -12h-10q37 -23 68 -66l114 -162l-131 -96l-117 160q-25 35 -40 82q-8 -37 -41 -82l-119 -160l-133 96l118 160q29 39 68 66h-12 q-45 0 -82 12z" />
<glyph unicode="+" d="M109 604v182h370v383h187v-383h378v-182h-378v-381h-187v381h-370z" />
<glyph unicode="," horiz-adv-x="501" d="M-16 -254l196 479h248l-268 -479h-176z" />
<glyph unicode="-" horiz-adv-x="716" d="M109 461v172h499v-172h-499z" />
<glyph unicode="." horiz-adv-x="395" d="M59 123q0 57 40 97t98.5 40t98.5 -40t40 -97t-40 -98t-98.5 -41t-98.5 41t-40 98z" />
<glyph unicode="/" horiz-adv-x="862" d="M-14 -209l743 1657h207l-743 -1657h-207z" />
<glyph unicode="0" horiz-adv-x="1116" d="M84 674.5q0 314.5 126 500t347 185.5t348 -184.5t127 -500t-124 -503.5t-348 -188t-350 188t-126 502.5zM289 673.5q0 -239.5 74.5 -371.5t196.5 -132t193.5 131t71.5 374t-74.5 371t-192.5 128t-193.5 -130.5t-75.5 -370z" />
<glyph unicode="1" horiz-adv-x="696" d="M33 926v215l334 198h182v-1339h-199v1120z" />
<glyph unicode="2" horiz-adv-x="1015" d="M74 0v166q258 188 435 390t177 368q0 117 -67.5 179t-186.5 62q-164 0 -321 -123v199q147 113 342.5 113t318.5 -105.5t123 -300.5q0 -360 -545 -774h582v-174h-858z" />
<glyph unicode="3" horiz-adv-x="964" d="M74 57v197q152 -82 332 -82q121 0 189.5 60.5t68.5 156.5t-76 149.5t-228 53.5h-81v172h81q113 0 190 56.5t77 154.5t-62.5 147t-186.5 49t-261 -86v195q126 74 282 74q205 0 321 -101.5t116 -255.5q0 -111 -54.5 -193.5t-160.5 -125.5q117 -29 182 -109t65 -200 q0 -166 -118.5 -273.5t-327.5 -107.5t-348 69z" />
<glyph unicode="4" horiz-adv-x="1118" d="M78 313v174l481 854h326v-854h188v-174h-188v-313h-201v313h-606zM281 487h403v732z" />
<glyph unicode="5" horiz-adv-x="1038" d="M106 55v195q131 -80 316 -80q324 0 323 262q0 104 -72.5 162.5t-211.5 58.5t-291 -71v759h694v-174h-495v-352q76 16 139 16q209 0 327.5 -109.5t118.5 -303t-132 -313t-355 -119.5t-361 69z" />
<glyph unicode="6" horiz-adv-x="1083" d="M96 608q0 336 171 551t458 215q102 0 195 -31v-194q-81 41 -187 41q-180 0 -288.5 -128t-137.5 -329q133 129 315.5 129t288 -116.5t105.5 -315.5t-119 -328t-319 -129q-233 0 -357.5 174.5t-124.5 460.5zM301 553q8 -199 85 -298t188.5 -99t173 76.5t61.5 197.5 t-61.5 188.5t-163.5 67.5q-160 0 -283 -133z" />
<glyph unicode="7" horiz-adv-x="940" d="M29 1165v174h882v-174l-544 -1165h-215l546 1165h-669z" />
<glyph unicode="8" horiz-adv-x="1101" d="M94 346q0 238 228 326q-96 41 -150.5 118.5t-54.5 182.5q0 180 125 282.5t306 102.5t306 -99.5t125 -295t-201 -289.5q230 -78 230 -318q0 -170 -131.5 -272t-330 -102t-325.5 99t-127 265zM299 358.5q0 -90.5 63.5 -147.5t186.5 -57t189.5 61t66.5 151.5t-65.5 152 t-190.5 60.5t-187.5 -65.5t-62.5 -155zM322 966.5q0 -96.5 64.5 -150.5t163.5 -54t161.5 56t62.5 152.5t-56 156t-167 59.5t-170 -61.5t-59 -158z" />
<glyph unicode="9" horiz-adv-x="1048" d="M63 907.5q0 194.5 117 321.5t332 127t335 -169t120 -437q0 -365 -155 -565.5t-443 -200.5q-131 0 -236 39v194q104 -47 221 -47q352 0 406 418q-98 -113 -279.5 -113t-299.5 119t-118 313.5zM272 910q0 -122 66.5 -192.5t177.5 -70.5q156 0 252 121q-4 186 -68.5 296 t-182.5 110t-181.5 -71t-63.5 -193z" />
<glyph unicode=":" horiz-adv-x="512" d="M119 135.5q0 57.5 40 97t97 39.5t97 -39.5t40 -97t-40 -97.5t-98 -40t-97 40t-39 97.5zM119 799.5q0 58.5 40 98.5t97 40t97 -40t40 -97.5t-40 -97t-98 -39.5t-97 38.5t-39 97z" />
<glyph unicode=";" horiz-adv-x="501" d="M-16 -254l196 479h248l-268 -479h-176zM145 799.5q0 58.5 39 98.5t97.5 40t98.5 -41t40 -98.5t-40 -96t-98.5 -38.5t-97.5 38.5t-39 97z" />
<glyph unicode="&#x3c;" horiz-adv-x="1116" d="M109 600v195l909 379v-205q-594 -219 -701 -271q82 -41 701 -272v-205z" />
<glyph unicode="=" d="M109 395v174h935v-174h-935zM109 825v172h935v-172h-935z" />
<glyph unicode="&#x3e;" horiz-adv-x="1116" d="M98 221v205q590 219 701 272q-98 45 -701 271v205l908 -379v-195z" />
<glyph unicode="?" horiz-adv-x="929" d="M104 1122v199q133 76 325 76t309.5 -99.5t117.5 -274.5t-119 -271.5t-264 -106.5l-2 -207h-190l-2 330q371 0 370 240q0 96 -61.5 154.5t-196.5 58.5t-287 -99zM233 122.5q0 59.5 41 100.5t99.5 41t99.5 -41t41 -100.5t-41 -99t-100.5 -39.5t-99.5 39.5t-40 99z" />
<glyph unicode="@" horiz-adv-x="1896" d="M111 403q0 250 123.5 455t332.5 318.5t455 113.5q330 0 558 -203.5t228 -539.5q0 -236 -114.5 -376t-263.5 -140q-205 0 -263 190q-98 -195 -305 -194q-156 0 -246 112.5t-90 292.5t117 307t285 127t246 -137q0 31 8 129h164q-35 -358 -35 -457q0 -211 127 -211 q84 0 140 95.5t56 249.5q0 283 -174 435t-458.5 152t-494.5 -208.5t-210 -503.5t170 -454t416 -159q207 0 377 90l-9 -186q-154 -74 -370 -74q-356 0 -563 220.5t-207 555.5zM713 424q0 -117 54 -179.5t136 -62.5t150.5 56.5t97.5 156.5q4 49 6 105q-33 211 -209 211 q-102 0 -168.5 -85t-66.5 -202z" />
<glyph unicode="A" horiz-adv-x="1351" d="M63 0l478 1380h276l471 -1380h-225l-109 338h-557l-110 -338h-224zM455 514h442q-178 551 -219 707q-14 -60 -223 -707z" />
<glyph unicode="B" horiz-adv-x="1189" d="M150 0v1380h452q217 0 342 -101t125 -267q0 -115 -64.5 -201t-164.5 -111q113 -20 189.5 -104t76.5 -236.5t-111.5 -256t-314.5 -103.5h-530zM360 174h271q260 0 260 215q0 104 -70.5 162.5t-210.5 58.5h-250v-436zM360 782h191q154 0 228.5 62.5t74.5 157t-66.5 149.5 t-201.5 55h-226v-424z" />
<glyph unicode="C" horiz-adv-x="1239" d="M94 687.5q0 318.5 197.5 515t501.5 196.5q221 0 354 -76v-207q-90 49 -162.5 68.5t-185.5 19.5q-207 0 -345.5 -140t-138.5 -373.5t137.5 -373t349.5 -139.5t347 103v-213q-127 -84 -352 -84q-309 0 -506 192.5t-197 511z" />
<glyph unicode="D" horiz-adv-x="1366" d="M150 0v1380h430q307 0 503.5 -190.5t196.5 -491.5t-185.5 -499.5t-510.5 -198.5h-434zM365 178h217q236 0 358.5 147.5t122.5 370t-133 363.5t-355 141h-210v-1022z" />
<glyph unicode="E" horiz-adv-x="1052" d="M150 0v1380h786v-176h-576v-426h510v-176h-510v-426h586v-176h-796z" />
<glyph unicode="F" horiz-adv-x="1011" d="M150 0v1380h782v-176h-572v-452h502v-177h-502v-575h-210z" />
<glyph unicode="G" horiz-adv-x="1394" d="M94 687.5q0 322.5 200 520t507 197.5q240 0 401 -92v-217q-175 111 -393 111l-2 -1q-219 0 -355.5 -141t-136.5 -375.5t134.5 -372t369.5 -137.5q123 0 234 45v381h-281v182h488v-661h-3l3 -14q-178 -129 -447 -129q-324 0 -521.5 190.5t-197.5 513z" />
<glyph unicode="H" horiz-adv-x="1343" d="M150 0v1380h210v-594h621v594h211v-1380h-211v604h-621v-604h-210z" />
<glyph unicode="I" horiz-adv-x="540" d="M166 0v1380h209v-1380h-209z" />
<glyph unicode="J" horiz-adv-x="753" d="M61 43v195q84 -52 168 -52q168 0 168 179v1015h211v-1007q0 -190 -93 -281.5t-235.5 -91.5t-218.5 43z" />
<glyph unicode="K" horiz-adv-x="1226" d="M150 0v1380h210v-1380h-210zM387 682l502 698h256l-506 -696l537 -684h-267z" />
<glyph unicode="L" horiz-adv-x="983" d="M150 0v1380h210v-1194h566v-186h-776z" />
<glyph unicode="M" horiz-adv-x="1777" d="M131 0l107 1380h249q293 -803 383 -1081q106 315 400 1081h250l127 -1380h-209l-49 541l-43 553q-113 -315 -394 -1067h-166l-186 514l-186 544q0 -113 -74 -1085h-209z" />
<glyph unicode="N" horiz-adv-x="1392" d="M150 0v1380h249q530 -901 645 -1126q-12 186 -12 547v579h211v-1380h-250q-522 879 -649 1128q16 -205 16 -550v-578h-210z" />
<glyph unicode="O" horiz-adv-x="1456" d="M94 695.5q0 322.5 172 517t464 194.5t462 -193.5t170 -517t-171 -518t-461 -194.5t-463 194.5t-173 517zM315 696.5q0 -237.5 113 -377t304.5 -139.5t300 137.5t108.5 378t-109.5 377.5t-303 137t-303.5 -138t-110 -375.5z" />
<glyph unicode="P" horiz-adv-x="1126" d="M150 0v1380h395q238 0 377 -126t139 -322.5t-140.5 -319.5t-363.5 -123h-197v-489h-210zM360 664h203q133 4 209 79.5t76 191.5t-79 192.5t-218 78.5h-191v-542z" />
<glyph unicode="Q" horiz-adv-x="1472" d="M94 695.5q0 322.5 172 517t464 194.5t462 -193.5t170 -517.5q0 -231 -90 -401t-254 -250l414 -248l-234 -92l-403 281q-23 -2 -66 -2q-289 0 -462 194.5t-173 517zM315 696.5q0 -237.5 113 -377t304.5 -139.5t300 137.5t108.5 378t-109.5 377.5t-303 137t-303.5 -138 t-110 -375.5z" />
<glyph unicode="R" horiz-adv-x="1163" d="M150 0v1380h385q238 0 366.5 -115.5t128.5 -314.5q-2 -145 -73.5 -246.5t-198.5 -146.5l360 -557h-252l-323 524h-183v-524h-210zM360 700h191q131 0 198.5 69t67.5 183q0 252 -276 252h-181v-504z" />
<glyph unicode="S" horiz-adv-x="1067" d="M119 1010q0 176 128 278.5t322.5 102.5t325.5 -66v-209q-137 86 -311 86q-113 0 -177.5 -50t-64.5 -132t63.5 -131t172 -96.5t156.5 -74t110 -75.5q123 -92 123 -270t-129 -282.5t-345.5 -104.5t-365.5 88v219q162 -121 375 -121q113 0 178 52t65 145q0 55 -38.5 101 t-83.5 69.5t-117 56.5t-93.5 43t-70.5 36.5t-72.5 45t-58.5 51.5t-51 66q-41 90 -41 172z" />
<glyph unicode="T" horiz-adv-x="1024" d="M45 1204v176h934v-176h-363v-1204h-210v1204h-361z" />
<glyph unicode="U" horiz-adv-x="1335" d="M145 512v868h211v-866q0 -176 85 -257t225 -81q313 0 313 348v856h211v-852q0 -268 -139.5 -407t-383 -139t-383 136t-139.5 394z" />
<glyph unicode="V" horiz-adv-x="1316" d="M63 1380h226q287 -893 366 -1192q66 246 197 643l178 549h225l-477 -1380h-250z" />
<glyph unicode="W" horiz-adv-x="1939" d="M63 1380h220l129 -510l151 -647q86 318 322 1137h186l146 -492l186 -649q74 365 262 1161h213l-338 -1380h-252l-131 436l-178 617q-37 -152 -299 -1053h-254z" />
<glyph unicode="X" horiz-adv-x="1286" d="M72 0l442 698l-418 682h244l293 -495l289 495h252l-418 -684l456 -696h-247l-328 518l-313 -518h-252z" />
<glyph unicode="Y" horiz-adv-x="1245" d="M47 1380h242q293 -606 329 -694q18 61 238 492l100 202h242l-473 -866v-514h-211v514z" />
<glyph unicode="Z" horiz-adv-x="1196" d="M111 0v166l696 1040h-686v174h936v-161l-699 -1045h727v-174h-974z" />
<glyph unicode="[" horiz-adv-x="665" d="M150 -381v1829h503v-178h-307v-1473h307v-178h-503z" />
<glyph unicode="\" horiz-adv-x="860" d="M-76 1448h209l744 -1659h-207z" />
<glyph unicode="]" horiz-adv-x="665" d="M14 -203h308v1473h-308v178h502v-1829h-502v178z" />
<glyph unicode="^" horiz-adv-x="962" d="M84 680l297 537h205l291 -537h-195l-199 389l-202 -389h-197z" />
<glyph unicode="_" horiz-adv-x="1140" d="M53 -72h1034v-172h-1034v172z" />
<glyph unicode="`" horiz-adv-x="909" d="M248 1634h223l195 -331h-172z" />
<glyph unicode="a" horiz-adv-x="1021" d="M88 302q0 140 112.5 223t315.5 83h172v60q0 106 -51 160.5t-170 54.5q-166 0 -301 -92v194q120 70 319 70q408 0 408 -396v-659h-199v123q-80 -131 -280 -131q-147 0 -236.5 85t-89.5 225zM301 302q0 -71 45 -111.5t137 -40.5t148.5 54t56.5 142v117h-156 q-115 0 -173 -45t-58 -116z" />
<glyph unicode="b" horiz-adv-x="1191" d="M145 0v1448h203v-567q111 172 310.5 172t324.5 -147.5t125 -379t-119 -386t-325.5 -154.5t-315.5 172v-158h-203zM348 523.5q0 -181.5 82 -271.5t198.5 -90t194.5 97t78 262t-78 260.5t-191.5 95.5t-198.5 -86t-85 -267.5z" />
<glyph unicode="c" horiz-adv-x="964" d="M84 513q0 226 146.5 385t396.5 159q135 0 247 -58v-184q-100 63 -244 63l-2 1q-144 -1 -240 -103q-97 -102 -97 -262q4 -158 96 -259t258 -101q123 0 229 67v-180q-100 -61 -256 -61q-244 0 -389 153.5t-145 379.5z" />
<glyph unicode="d" horiz-adv-x="1187" d="M84 526.5q0 231.5 125 379t324.5 147.5t310.5 -172v567h203v-1448h-203v158q-109 -172 -315.5 -172t-325.5 154.5t-119 386zM291 520q0 -166 76.5 -262t194.5 -96t200 90t82 271.5t-85 267.5t-199 86t-191.5 -95.5t-77.5 -261.5z" />
<glyph unicode="e" horiz-adv-x="1075" d="M84 523.5q0 242.5 131 385t332 142.5t317.5 -124t116.5 -358q0 -63 -12 -133h-682q20 -135 114.5 -206.5t249 -71.5t264.5 78v-181q-115 -65 -303 -65q-242 0 -385 145.5t-143 388zM285 594h501v37q-4 117 -63 185.5t-165.5 68.5t-180.5 -75t-92 -216z" />
<glyph unicode="f" horiz-adv-x="684" d="M61 883v155h166v80q0 162 87 255t245 93q57 0 117 -16v-176q-47 20 -98 20q-150 0 -150 -178v-78h219v-155h-219v-883h-201v883h-166z" />
<glyph unicode="g" horiz-adv-x="1144" d="M88 522.5q0 233.5 117 382t316.5 148.5t293.5 -176v161h201v-950q0 -240 -136.5 -361.5t-343 -121.5t-343.5 67v203q131 -86 317 -86q305 0 305 301v107q-100 -168 -288.5 -168t-313.5 130t-125 363.5zM299 527.5q0 -158.5 75 -242.5t179 -84t183 83t79 249.5t-74.5 255 t-188.5 88.5t-183.5 -95.5t-69.5 -254z" />
<glyph unicode="h" horiz-adv-x="1128" d="M141 0v1448h201v-588q88 193 322 193q152 0 243.5 -94.5t91.5 -262.5v-696h-200v655q0 106 -54.5 165t-149.5 59t-174 -78t-79 -238v-563h-201z" />
<glyph unicode="i" horiz-adv-x="501" d="M125 1356q0 53 36 90t89 37t90 -37t37 -89t-37 -89t-90 -37t-89 36t-36 89zM150 0v1038h202v-1038h-202z" />
<glyph unicode="j" horiz-adv-x="495" d="M-90 -201q65 -32 131 -32q113 0 113 145v1126h200v-1130q0 -145 -76.5 -227t-218.5 -82q-66 0 -149 30v170zM127 1356q0 53 36 90t89 37t90 -37t37 -89t-37 -89t-89 -37t-89 36t-37 89z" />
<glyph unicode="k" horiz-adv-x="1024" d="M141 0v1434h201v-1434h-201zM350 543l391 495h236l-395 -495l407 -543h-239z" />
<glyph unicode="l" horiz-adv-x="501" d="M150 0v1448h202v-1448h-202z" />
<glyph unicode="m" horiz-adv-x="1699" d="M141 0v1038h201v-166q88 180 293 181q233 0 299 -201q43 96 125 148.5t184 52.5q160 0 243 -94.5t83 -260.5v-698h-201v655q0 223 -180 224q-90 0 -161 -80t-71 -236v-563h-200v655q0 223 -183 224q-88 0 -159.5 -80t-71.5 -236v-563h-201z" />
<glyph unicode="n" horiz-adv-x="1128" d="M141 0v1038h201v-178q92 193 324 193q154 0 243.5 -94.5t89.5 -256.5v-702h-200v655q0 109 -54.5 166.5t-152.5 57.5t-174 -83t-76 -233v-563h-201z" />
<glyph unicode="o" d="M84 512q0 231 135 386t364.5 155t358.5 -150.5t129 -384t-132 -385t-362.5 -151.5t-361.5 149.5t-131 380.5zM293 517q0 -155 75.5 -260t211 -105t208 102t72.5 262t-69.5 263.5t-210 103.5t-214 -105.5t-73.5 -260.5z" />
<glyph unicode="p" horiz-adv-x="1187" d="M141 -397v1435h201v-159q106 174 315 174t328 -148.5t119 -381t-122 -385t-326.5 -152.5t-313.5 172v-555h-201zM342 524.5q0 -182.5 85 -272.5t199.5 -90t192.5 95t78 262t-76 262.5t-192.5 95.5t-201.5 -85t-85 -267.5z" />
<glyph unicode="q" horiz-adv-x="1187" d="M84 523.5q0 232.5 120 381t324.5 148.5t315.5 -170v155h203v-1435h-203v557q-111 -174 -313.5 -174t-324.5 152.5t-122 385zM291 519q0 -165 79 -261t193.5 -96t197.5 90t83 272.5t-84 267.5t-200 85t-192.5 -96.5t-76.5 -261.5z" />
<glyph unicode="r" horiz-adv-x="694" d="M141 0v1038h201v-182q76 193 272 193q29 0 64 -7v-196q-43 18 -96 18q-104 0 -172 -92t-68 -219v-553h-201z" />
<glyph unicode="s" horiz-adv-x="858" d="M215 971q102 78 263 78t255 -45v-183q-100 60 -258 60q-72 0 -114 -33t-42 -86q0 -63 54 -96q16 -10 25.5 -17.5t31 -17.5t31.5 -17q31 -14 111.5 -49t149.5 -101.5t69 -191.5t-98.5 -203.5t-274.5 -78.5t-299 61v191q143 -88 297 -88q80 0 124 32.5t44 81.5t-35 85 t-71 53.5t-122 54.5q-243 100 -243 293q0 139 102 217z" />
<glyph unicode="t" horiz-adv-x="765" d="M37 883v155h162v254h202v-254h273v-155h-273v-572q0 -149 142 -149h2q84 0 141 45v-180q-68 -37 -166 -37q-322 0 -321 325v568h-162z" />
<glyph unicode="u" horiz-adv-x="1128" d="M129 330v708h203v-659q0 -106 52 -162.5t156.5 -56.5t175 82t70.5 231v565h201v-1038h-201v178q-82 -190 -323 -190q-154 0 -244 91t-90 251z" />
<glyph unicode="v" horiz-adv-x="1052" d="M39 1038h211q248 -772 274 -880q18 100 135 442l146 438h209l-377 -1038h-229z" />
<glyph unicode="w" horiz-adv-x="1630" d="M39 1038h213q203 -723 225 -843q29 139 236 843h194q199 -664 240 -845q25 121 242 845h202l-329 -1038h-230q-184 649 -221 819q-27 -127 -219 -819h-227z" />
<glyph unicode="x" horiz-adv-x="1007" d="M45 0l354 528l-331 512h227l217 -366l223 366h226l-347 -514l347 -526h-228l-227 381l-240 -381h-221z" />
<glyph unicode="y" horiz-adv-x="1032" d="M14 1038h224l129 -338l161 -438q27 86 265 776h213l-375 -1009q-150 -400 -457 -400q-55 0 -94 11v172q33 -8 70 -9q199 0 278 220z" />
<glyph unicode="z" horiz-adv-x="944" d="M88 0v154l504 716h-486v168h723v-143l-510 -725h537v-170h-768z" />
<glyph unicode="{" horiz-adv-x="712" d="M94 434v197q29 0 51 2q84 8 131.5 73.5t47.5 153.5q0 43 -18.5 134t-18.5 143q0 143 82 233t200 90q53 0 109 -18v-193q-35 18 -80 18.5t-77 -38.5t-32 -93.5t18.5 -151.5t18.5 -155q0 -117 -66.5 -198.5t-178.5 -98.5q113 -16 179 -99t66 -200q0 -57 -18.5 -154 t-18.5 -150.5t32 -93.5t77 -40t80 19v-193q-55 -18 -109 -18q-119 0 -200.5 90t-81.5 233q0 51 18.5 142.5t18.5 134.5q0 88 -45 153q-56 78 -185 78z" />
<glyph unicode="|" horiz-adv-x="497" d="M156 -397v1820h186v-1820h-186z" />
<glyph unicode="}" horiz-adv-x="712" d="M35 -186q31 -18 77 -18.5t78.5 39.5t32.5 93.5t-18.5 150.5t-18.5 154q0 117 65.5 200t178.5 99q-113 16 -178.5 98.5t-65.5 198.5q0 57 18.5 154.5t18.5 151t-32.5 93.5t-78.5 40t-77 -19v193q55 18 106 18q121 0 202 -89t81 -234q0 -51 -18.5 -142.5t-18.5 -134.5 q0 -88 47 -153.5t133 -73.5q20 -2 51 -2v-197q-131 0 -181 -71.5t-50 -159.5q0 -43 18.5 -134.5t18.5 -142.5q0 -145 -81 -234t-202 -89q-51 0 -106 18v193z" />
<glyph unicode="~" horiz-adv-x="1259" d="M70 510q141 203 327 203q92 0 176 -34t153 -67.5t124 -33.5q113 0 194 120l146 -108q-129 -197 -311 -197q-104 0 -244.5 68.5t-200.5 68.5q-129 0 -229 -135z" />
<glyph unicode="&#xa1;" horiz-adv-x="536" d="M127 919.5q0 59.5 40 99.5t99.5 40t100.5 -40t41 -99.5t-42 -100.5t-100.5 -41t-98.5 41t-40 100.5zM170 -338v942h197v-942h-197z" />
<glyph unicode="&#xa2;" horiz-adv-x="942" d="M85 514q1 201 119 348.5t322 179.5v222h172v-217q86 -10 162 -48v-180q-98 55 -209 55q-162 0 -260 -101t-100 -259q4 -156 99 -256t261 -100q111 0 209 57v-180q-70 -33 -162 -47v-215h-172v217q-203 33 -322.5 178t-118.5 346z" />
<glyph unicode="&#xa3;" horiz-adv-x="1079" d="M115 0v168q106 53 147 130t41 214q0 23 -4 72h-176v153h160q-14 104 -15 166q0 213 113 330t321 117q141 0 240 -56v-196q-98 61 -209 61q-250 0 -250 -256q0 -51 13 -166h360v-153h-344l2 -72q0 -242 -152 -338h642v-174h-889z" />
<glyph unicode="&#xa4;" horiz-adv-x="1128" d="M66 266l120 119q-72 102 -71.5 243.5t73.5 256.5l-122 123l124 120l123 -122q111 76 251.5 75.5t256.5 -69.5l119 116l123 -120l-119 -119q72 -113 72 -249t-78 -251l125 -123l-123 -121l-127 123q-106 -72 -252.5 -71.5t-251.5 67.5l-119 -119zM287 639 q0 -119 78.5 -200t200.5 -81t200 80t78 200t-79 201t-200 81t-199.5 -81t-78.5 -200z" />
<glyph unicode="&#xa5;" horiz-adv-x="1228" d="M53 1339h242l313 -614l322 614h239l-331 -598h239v-139h-317l-45 -82v-84h362v-139h-362v-297h-211v297h-361v139h361v84l-45 82h-316v139h238z" />
<glyph unicode="&#xa6;" horiz-adv-x="497" d="M156 -328v682h186v-682h-186zM156 752v682h186v-682h-186z" />
<glyph unicode="&#xa7;" horiz-adv-x="1099" d="M109 600q0 141 88 244q-74 78 -74 190q0 170 125 264.5t318.5 94.5t324.5 -66v-209q-143 86 -311 86q-115 0 -176.5 -43t-61.5 -121q0 -70 59 -110q51 -35 132 -72t139.5 -64.5t106.5 -56t102 -73.5q100 -90 100 -243t-86 -249q78 -92 78 -209q0 -176 -126 -272.5 t-343 -96.5t-367 89v219q162 -121 375 -121q117 0 181.5 46t64.5 128t-61.5 130t-233.5 124t-263 163t-91 228zM313 601q0 -77 64.5 -126t183.5 -100t178 -84q39 51 39 128t-58 124t-134 84t-92 45q-50 20 -136 63q-45 -57 -45 -134z" />
<glyph unicode="&#xa8;" horiz-adv-x="909" d="M104 1472.5q0 53.5 35 88t89.5 34.5t89 -35.5t34.5 -87t-34.5 -87t-89 -35.5t-89.5 34.5t-35 88zM557 1472.5q0 51.5 35 87t88 35.5t89 -34.5t36 -88t-36 -88t-89 -34.5t-88 35.5t-35 87z" />
<glyph unicode="&#xa9;" horiz-adv-x="1581" d="M84 690q0 291 208 499t498.5 208t498.5 -208t208 -499t-208 -499.5t-498.5 -208.5t-498.5 208.5t-208 499.5zM238 688.5q0 -231.5 160.5 -392.5t393 -161t392 161t159.5 392.5t-160.5 393t-392 161.5t-392 -161.5t-160.5 -393zM457 686q0 158 102.5 267.5t276.5 109.5 q96 0 174 -43v-150q-70 45 -164 45t-157.5 -62t-62.5 -163.5t62.5 -166t155.5 -64.5t166 51v-152q-74 -43 -181 -43q-164 0 -268 106.5t-104 264.5z" />
<glyph unicode="&#xaa;" horiz-adv-x="747" d="M8 1055q0 121 95.5 192.5t267.5 71.5h143v45q0 90 -43 136t-165 46t-232 -76v162q104 59 274 60q338 0 338 -332v-557h-168v108q-80 -117 -235 -116q-125 0 -200 69.5t-75 190.5zM184 1059.5q0 -62.5 39 -96t115 -33.5t126 46t50 111v105h-117q-102 0 -157.5 -35 t-55.5 -97.5z" />
<glyph unicode="&#xab;" horiz-adv-x="1048" d="M55 518l307 332h220l-301 -332l301 -332h-220zM455 518l309 332h217l-299 -332l299 -332h-217z" />
<glyph unicode="&#xac;" horiz-adv-x="1157" d="M63 676v172h1014v-535h-178v363h-836z" />
<glyph unicode="&#xad;" horiz-adv-x="716" d="M109 461v172h499v-172h-499z" />
<glyph unicode="&#xae;" horiz-adv-x="946" d="M20 1161.5q0 196.5 128 323.5t325 127t325 -127t128 -323.5t-128 -323.5t-325 -127t-325 127t-128 323.5zM127 1161.5q0 -155.5 95 -252t252 -96.5t252 96.5t95 252t-95 252.5t-252 97t-252 -97t-95 -252.5zM334 950v451h131q172 0 172 -144q0 -90 -74 -127l115 -180 h-115l-98 164h-35v-164h-96zM430 1192h49q59 0 59.5 64.5t-65.5 64.5h-43v-129z" />
<glyph unicode="&#xaf;" horiz-adv-x="909" d="M143 1395v139h623v-139h-623z" />
<glyph unicode="&#xb0;" horiz-adv-x="778" d="M61 1064q0 138 95.5 232.5t234.5 94.5t232.5 -92.5t93.5 -230.5t-95.5 -231.5t-234.5 -93.5t-232.5 91.5t-93.5 229.5zM215 1067q0 -74 51 -126t125 -52t123 52t49 126t-51 126t-125 52t-123 -52t-49 -126z" />
<glyph unicode="&#xb1;" d="M109 61v172h935v-172h-935zM109 674v174h370v328h187v-328h378v-174h-378v-328h-187v328h-370z" />
<glyph unicode="&#xb2;" horiz-adv-x="747" d="M88 803v117q389 289 389 487q0 68 -40 103.5t-107 35.5q-104 0 -215 -82v162q109 68 232.5 68t208.5 -72t85 -197t-94 -250.5t-248 -238.5h371v-133h-582z" />
<glyph unicode="&#xb3;" horiz-adv-x="681" d="M72 846v143q109 -57 202 -57q176 0 177 123q0 127 -193 127h-43v133h43q74 0 121 31.5t47 91.5q0 117 -135 116q-94 0 -193 -67v151q88 55 213 55.5t201 -68.5t76 -161q0 -178 -162 -213q78 -8 131 -65.5t53 -155.5t-77.5 -166.5t-218 -68.5t-242.5 51z" />
<glyph unicode="&#xb4;" horiz-adv-x="909" d="M248 1303l194 331h224l-246 -331h-172z" />
<glyph unicode="&#xb5;" horiz-adv-x="1140" d="M141 -367v1405h201v-659q0 -104 66.5 -161.5t169 -57.5t162 81t59.5 232v565h200v-1038h-200v147q-74 -160 -256 -159q-117 0 -201 59v-414h-201z" />
<glyph unicode="&#xb6;" horiz-adv-x="1144" d="M43 1028.5q0 145.5 105.5 248.5t306.5 103h153v-1683h-168v987q-188 0 -292.5 99.5t-104.5 245zM829 -303l2 1683h168v-1683h-170z" />
<glyph unicode="&#xb7;" horiz-adv-x="495" d="M111 614.5q0 57.5 39.5 97.5t98 40t98.5 -40t40 -97.5t-40 -98.5t-97 -41t-98 41t-41 98.5z" />
<glyph unicode="&#xb8;" horiz-adv-x="909" d="M291 -387q168 10 168 141q0 66 -51 142h172q37 -51 36.5 -157t-84 -184.5t-241.5 -80.5v139z" />
<glyph unicode="&#xb9;" horiz-adv-x="528" d="M20 1389v153l250 144h127v-883h-153v708z" />
<glyph unicode="&#xba;" horiz-adv-x="808" d="M-2 1239q0 197 110.5 327t301 130t296 -127t105.5 -324.5t-107.5 -325.5t-299 -128t-299 125.5t-107.5 322.5zM174 1242q0 -132 61.5 -221t171 -89t168 87t58.5 223t-55.5 224t-170 88t-174 -90t-59.5 -222z" />
<glyph unicode="&#xbb;" horiz-adv-x="1052" d="M68 186l299 332l-299 332h217l309 -332l-309 -332h-217zM469 186l299 332l-299 332h217l307 -332l-307 -332h-217z" />
<glyph unicode="&#xbf;" horiz-adv-x="929" d="M104 20q0 121 64 209q115 156 319 170l2 207h191l2 -332q-371 0 -371 -237q0 -96 60.5 -154.5t198 -58.5t286.5 96v-199q-139 -76 -328.5 -75.5t-306.5 99.5t-117 275zM446 919.5q0 59.5 41 99.5t100.5 40t99.5 -40t40 -99.5t-40 -99.5t-99.5 -40t-100.5 40t-41 99.5z " />
<glyph unicode="&#xc0;" horiz-adv-x="1351" d="M63 0l478 1380h276l471 -1380h-225l-109 338h-557l-110 -338h-224zM338 1817h223l195 -332h-172zM455 514h442q-178 551 -219 707q-14 -60 -223 -707z" />
<glyph unicode="&#xc1;" horiz-adv-x="1351" d="M63 0l478 1380h276l471 -1380h-225l-109 338h-557l-110 -338h-224zM455 514h442q-178 551 -219 707q-14 -60 -223 -707zM610 1485l195 332h223l-246 -332h-172z" />
<glyph unicode="&#xc2;" horiz-adv-x="1351" d="M63 0l478 1380h276l471 -1380h-225l-109 338h-557l-110 -338h-224zM313 1485l277 332h184l277 -332h-199l-172 209l-168 -209h-199zM455 514h442q-178 551 -219 707q-14 -60 -223 -707z" />
<glyph unicode="&#xc3;" horiz-adv-x="1351" d="M63 0l478 1380h276l471 -1380h-225l-109 338h-557l-110 -338h-224zM317 1622q29 63 87.5 107.5t126 44.5t153.5 -42t125 -42q76 0 119 88l114 -86q-71 -152 -223 -152q-59 0 -142 42t-124 42q-72 0 -135 -94zM455 514h442q-178 551 -219 707q-14 -60 -223 -707z" />
<glyph unicode="&#xc4;" horiz-adv-x="1351" d="M63 0l478 1380h276l471 -1380h-225l-109 338h-557l-110 -338h-224zM336 1652.5q0 53.5 35 88.5t88 35t89 -36t36 -87t-36 -87t-89 -36t-88 34.5t-35 88zM455 514h442q-178 551 -219 707q-14 -60 -223 -707zM788 1653q0 51 36 87t88.5 36t88 -35t35.5 -88.5t-35.5 -88 t-88 -34.5t-88.5 36t-36 87z" />
<glyph unicode="&#xc5;" horiz-adv-x="1351" d="M63 0l478 1380h276l471 -1380h-225l-109 338h-557l-110 -338h-224zM449 1699q0 97 68.5 166.5t165.5 69.5t167 -69.5t70 -166.5t-70 -166t-167 -69t-165.5 69t-68.5 166zM455 514h442q-178 551 -219 707q-14 -60 -223 -707zM573 1702q0 -45 32 -79t78 -34t78 34t32 79 t-32 77.5t-78 32.5t-78 -32.5t-32 -77.5z" />
<glyph unicode="&#xc6;" horiz-adv-x="1837" d="M39 0l749 1380h932v-176h-575v-426h510v-176h-510v-426h586v-176h-791v338h-494l-186 -338h-221zM545 514h395v731q-104 -211 -395 -731z" />
<glyph unicode="&#xc7;" horiz-adv-x="1239" d="M94 687.5q0 318.5 197.5 515t501.5 196.5q221 0 354 -76v-207q-90 49 -162.5 68.5t-185.5 19.5q-207 0 -345.5 -140t-138.5 -373.5t137.5 -373t349.5 -139.5t347 103v-213q-127 -84 -352 -84q-309 0 -506 192.5t-197 511zM555 -387q168 10 168 141q0 66 -51 142h172 q37 -51 37 -157t-84 -184.5t-242 -80.5v139z" />
<glyph unicode="&#xc8;" horiz-adv-x="1052" d="M150 0v1380h786v-176h-576v-426h510v-176h-510v-426h586v-176h-796zM252 1817h223l195 -332h-172z" />
<glyph unicode="&#xc9;" horiz-adv-x="1052" d="M150 0v1380h786v-176h-576v-426h510v-176h-510v-426h586v-176h-796zM487 1485l195 332h223l-246 -332h-172z" />
<glyph unicode="&#xca;" horiz-adv-x="1052" d="M150 0v1380h786v-176h-576v-426h510v-176h-510v-426h586v-176h-796zM190 1485l277 332h184l277 -332h-199l-172 209l-168 -209h-199z" />
<glyph unicode="&#xcb;" horiz-adv-x="1052" d="M150 0v1380h786v-176h-576v-426h510v-176h-510v-426h586v-176h-796zM201 1650.5q0 53.5 34.5 88.5t88 35t89.5 -35t36 -88.5t-36 -88t-89.5 -34.5t-88 34.5t-34.5 88zM653 1650.5q0 53.5 36 88.5t88 35t88 -35t36 -88.5t-36 -88t-88 -34.5t-88 34.5t-36 88z" />
<glyph unicode="&#xcc;" horiz-adv-x="540" d="M-72 1817h224l194 -332h-172zM166 0v1380h209v-1380h-209z" />
<glyph unicode="&#xcd;" horiz-adv-x="540" d="M166 0v1380h209v-1380h-209zM193 1485l194 332h223l-245 -332h-172z" />
<glyph unicode="&#xce;" horiz-adv-x="540" d="M-96 1485l276 332h185l276 -332h-199l-172 209l-168 -209h-198zM166 0v1380h209v-1380h-209z" />
<glyph unicode="&#xcf;" horiz-adv-x="540" d="M-74 1652.5q0 53.5 35 88.5t88 35t89 -36t36 -87t-36 -87t-89 -36t-88 34.5t-35 88zM166 0v1380h209v-1380h-209zM379 1653q0 51 36 87t88 36t88 -35t36 -88.5t-36 -88t-88 -34.5t-88 36t-36 87z" />
<glyph unicode="&#xd0;" horiz-adv-x="1507" d="M127 602v172h164v606h428q307 0 503.5 -190.5t196.5 -491.5t-185 -499.5t-511 -198.5h-432v602h-164zM504 178h217q238 0 360.5 147.5t122.5 370t-134 363.5t-355 141h-211v-426h336v-172h-336v-424z" />
<glyph unicode="&#xd1;" horiz-adv-x="1392" d="M150 0v1380h249q530 -901 645 -1126q-12 186 -12 547v579h211v-1380h-250q-522 879 -649 1128q16 -205 16 -550v-578h-210zM350 1622q29 63 87.5 107.5t126 44.5t153.5 -42t125 -42q76 0 119 88l114 -86q-71 -152 -223 -152q-59 0 -142 42t-124 42q-72 0 -135 -94z" />
<glyph unicode="&#xd2;" horiz-adv-x="1456" d="M94 695.5q0 322.5 172 517t464 194.5t462 -193.5t170 -517t-171 -518t-461 -194.5t-463 194.5t-173 517zM315 696.5q0 -237.5 113 -377t304.5 -139.5t300 137.5t108.5 378t-109.5 377.5t-303 137t-303.5 -138t-110 -375.5zM416 1817h223l195 -332h-172z" />
<glyph unicode="&#xd3;" horiz-adv-x="1456" d="M94 695.5q0 322.5 172 517t464 194.5t462 -193.5t170 -517t-171 -518t-461 -194.5t-463 194.5t-173 517zM315 696.5q0 -237.5 113 -377t304.5 -139.5t300 137.5t108.5 378t-109.5 377.5t-303 137t-303.5 -138t-110 -375.5zM655 1485l195 332h223l-246 -332h-172z" />
<glyph unicode="&#xd4;" horiz-adv-x="1456" d="M94 695.5q0 322.5 172 517t464 194.5t462 -193.5t170 -517t-171 -518t-461 -194.5t-463 194.5t-173 517zM315 696.5q0 -237.5 113 -377t304.5 -139.5t300 137.5t108.5 378t-109.5 377.5t-303 137t-303.5 -138t-110 -375.5zM373 1485l276 332h185l276 -332h-199l-172 209 l-168 -209h-198z" />
<glyph unicode="&#xd5;" horiz-adv-x="1456" d="M94 695.5q0 322.5 172 517t464 194.5t462 -193.5t170 -517t-171 -518t-461 -194.5t-463 194.5t-173 517zM315 696.5q0 -237.5 113 -377t304.5 -139.5t300 137.5t108.5 378t-109.5 377.5t-303 137t-303.5 -138t-110 -375.5zM369 1624q29 63 87 107.5t125.5 44.5t153.5 -42 t125 -42q76 0 119 88l115 -86q-72 -152 -224 -152q-59 0 -142 42t-122 42q-74 0 -137 -94z" />
<glyph unicode="&#xd6;" horiz-adv-x="1456" d="M94 695.5q0 322.5 172 517t464 194.5t462 -193.5t170 -517t-171 -518t-461 -194.5t-463 194.5t-173 517zM315 696.5q0 -237.5 113 -377t304.5 -139.5t300 137.5t108.5 378t-109.5 377.5t-303 137t-303.5 -138t-110 -375.5zM389 1652.5q0 53.5 35 88.5t88 35t89 -36 t36 -87t-36 -87t-89 -36t-88 34.5t-35 88zM842 1653q0 51 35.5 87t88 36t88.5 -35t36 -88.5t-36 -88t-88.5 -34.5t-88 36t-35.5 87z" />
<glyph unicode="&#xd7;" horiz-adv-x="1030" d="M111 969l129 129l272 -271l272 271l131 -131l-272 -271l268 -266l-129 -129l-268 266l-266 -264l-131 129l266 266z" />
<glyph unicode="&#xd8;" horiz-adv-x="1404" d="M82 -16l158 213q-158 193 -158 507t172 508.5t463 194.5q201 0 352 -96l72 94h213l-156 -211q154 -193 154 -507t-171 -508.5t-462 -194.5q-201 0 -350 98l-74 -98h-213zM299 721q0 -217 74 -348l577 778q-92 68 -233 68q-195 0 -306.5 -140.5t-111.5 -357.5zM487 242 q99 -70 232 -70q197 0 306.5 140.5t109.5 383.5q0 193 -70 322z" />
<glyph unicode="&#xd9;" horiz-adv-x="1335" d="M145 512v868h211v-866q0 -176 85 -257t225 -81q313 0 313 348v856h211v-852q0 -268 -139.5 -407t-383 -139t-383 136t-139.5 394zM344 1817h223l195 -332h-172z" />
<glyph unicode="&#xda;" horiz-adv-x="1335" d="M145 512v868h211v-866q0 -176 85 -257t225 -81q313 0 313 348v856h211v-852q0 -268 -139.5 -407t-383 -139t-383 136t-139.5 394zM608 1485l195 332h223l-246 -332h-172z" />
<glyph unicode="&#xdb;" horiz-adv-x="1335" d="M145 512v868h211v-866q0 -176 85 -257t225 -81q313 0 313 348v856h211v-852q0 -268 -139.5 -407t-383 -139t-383 136t-139.5 394zM301 1485l277 332h184l276 -332h-198l-172 209l-168 -209h-199z" />
<glyph unicode="&#xdc;" horiz-adv-x="1335" d="M145 512v868h211v-866q0 -176 85 -257t225 -81q313 0 313 348v856h211v-852q0 -268 -139.5 -407t-383 -139t-383 136t-139.5 394zM322 1652.5q0 53.5 34.5 88.5t89 35t89 -36t34.5 -87t-34.5 -87t-89 -36t-89 34.5t-34.5 88zM774 1653q0 51 35 87t88 36t89 -35t36 -88.5 t-36 -88t-89 -34.5t-88 36t-35 87z" />
<glyph unicode="&#xdd;" horiz-adv-x="1245" d="M47 1380h242q293 -606 329 -694q18 61 238 492l100 202h242l-473 -866v-514h-211v514zM569 1485l195 332h223l-246 -332h-172z" />
<glyph unicode="&#xde;" horiz-adv-x="1114" d="M150 0v1380h210v-245h175q244 0 380 -124t136 -324t-137.5 -320.5t-366.5 -120.5h-187v-246h-210zM360 420h183q147 0 221 72.5t74 193.5t-75 198t-233 77h-170v-541z" />
<glyph unicode="&#xdf;" horiz-adv-x="1142" d="M145 0v995q0 205 111 311.5t293 106.5t289.5 -95t107.5 -231q0 -86 -37 -152.5t-72.5 -112.5t-35.5 -85t45 -82t98 -80.5t98 -112.5t45 -169q0 -137 -94 -223t-258 -86q-121 0 -194 32v185q88 -49 174 -49t132 36.5t46 92t-31 97.5t-76 75.5t-90 70.5q-106 84 -106 197 q0 82 75.5 184.5t75.5 172t-49 111.5t-131 42q-217 0 -217 -227v-1004h-199z" />
<glyph unicode="&#xe0;" horiz-adv-x="1021" d="M88 302q0 140 112.5 223t315.5 83h172v60q0 106 -51 160.5t-170 54.5q-166 0 -301 -92v194q120 70 319 70q408 0 408 -396v-659h-199v123q-80 -131 -280 -131q-147 0 -236.5 85t-89.5 225zM199 1475h223l194 -332h-172zM301 302q0 -71 45 -111.5t137 -40.5t148.5 54 t56.5 142v117h-156q-115 0 -173 -45t-58 -116z" />
<glyph unicode="&#xe1;" horiz-adv-x="1021" d="M88 302q0 140 112.5 223t315.5 83h172v60q0 106 -51 160.5t-170 54.5q-166 0 -301 -92v194q120 70 319 70q408 0 408 -396v-659h-199v123q-80 -131 -280 -131q-147 0 -236.5 85t-89.5 225zM301 302q0 -71 45 -111.5t137 -40.5t148.5 54t56.5 142v117h-156 q-115 0 -173 -45t-58 -116zM440 1143l195 332h223l-246 -332h-172z" />
<glyph unicode="&#xe2;" horiz-adv-x="1021" d="M88 302q0 140 112.5 223t315.5 83h172v60q0 106 -51 160.5t-170 54.5q-166 0 -301 -92v194q120 70 319 70q408 0 408 -396v-659h-199v123q-80 -131 -280 -131q-147 0 -236.5 85t-89.5 225zM154 1143l276 332h184l277 -332h-199l-172 209l-168 -209h-198zM301 302 q0 -71 45 -111.5t137 -40.5t148.5 54t56.5 142v117h-156q-115 0 -173 -45t-58 -116z" />
<glyph unicode="&#xe3;" horiz-adv-x="1021" d="M88 302q0 140 112.5 223t315.5 83h172v60q0 106 -51 160.5t-170 54.5q-166 0 -301 -92v194q120 70 319 70q408 0 408 -396v-659h-199v123q-80 -131 -280 -131q-147 0 -236.5 85t-89.5 225zM154 1280q29 63 87 107.5t125.5 44.5t153.5 -42t125 -42q76 0 119 88l115 -86 q-72 -152 -224 -152q-59 0 -142 42t-124 42q-72 0 -135 -94zM301 302q0 -71 45 -111.5t137 -40.5t148.5 54t56.5 142v117h-156q-115 0 -173 -45t-58 -116z" />
<glyph unicode="&#xe4;" horiz-adv-x="1021" d="M88 302q0 140 112.5 223t315.5 83h172v60q0 106 -51 160.5t-170 54.5q-166 0 -301 -92v194q120 70 319 70q408 0 408 -396v-659h-199v123q-80 -131 -280 -131q-147 0 -236.5 85t-89.5 225zM174 1306.5q0 53.5 35 88.5t89 35t89 -35t35 -88.5t-35 -88t-89 -34.5t-89 34.5 t-35 88zM301 302q0 -71 45 -111.5t137 -40.5t148.5 54t56.5 142v117h-156q-115 0 -173 -45t-58 -116zM627 1306.5q0 53.5 34.5 88.5t88 35t89 -35t35.5 -88.5t-35.5 -88t-89 -34.5t-88 34.5t-34.5 88z" />
<glyph unicode="&#xe5;" horiz-adv-x="1021" d="M88 302q0 140 112.5 223t315.5 83h172v60q0 106 -51 160.5t-170 54.5q-166 0 -301 -92v194q120 70 319 70q408 0 408 -396v-659h-199v123q-80 -131 -280 -131q-147 0 -236.5 85t-89.5 225zM291 1357q0 97 68.5 166.5t166 69.5t167 -69.5t69.5 -166.5t-69.5 -166t-167 -69 t-166 69t-68.5 166zM301 302q0 -71 45 -111.5t137 -40.5t148.5 54t56.5 142v117h-156q-115 0 -173 -45t-58 -116zM416 1360q0 -45 31.5 -79t77.5 -34t78 34t32 79t-32 77.5t-78 32.5t-77.5 -32.5t-31.5 -77.5z" />
<glyph unicode="&#xe6;" horiz-adv-x="1671" d="M98 298q0 144 114 228t318 84h168v58q0 106 -51 160.5t-192.5 54.5t-278.5 -90v190q119 72 311 72q256 0 328 -174q115 170 348 170q203 0 314.5 -125t111.5 -363q0 -57 -12 -127h-678q23 -135 116 -206.5t242.5 -71.5t260.5 78v-181q-115 -66 -268.5 -65.5t-267.5 54.5 t-173 153q-39 -90 -132 -148.5t-242.5 -58.5t-243 82t-93.5 226zM309 301q0 -70 45 -109.5t134.5 -39.5t149.5 56t60 150v103h-137q-252 0 -252 -160zM895 594h500v37q-2 121 -63.5 187.5t-165 66.5t-178.5 -74t-93 -217z" />
<glyph unicode="&#xe7;" horiz-adv-x="964" d="M84 513q0 226 146.5 385t396.5 159q135 0 247 -58v-184q-100 63 -244.5 63.5t-241.5 -102t-97 -262.5q4 -158 96 -259t258 -101q123 0 229 67v-180q-100 -61 -256 -61q-244 0 -389 153.5t-145 379.5zM387 -387q168 10 168 141q0 66 -51 142h172q37 -51 37 -157 t-84 -184.5t-242 -80.5v139z" />
<glyph unicode="&#xe8;" horiz-adv-x="1075" d="M84 523.5q0 242.5 131 385t332 142.5t317.5 -124t116.5 -358q0 -63 -12 -133h-682q20 -135 114.5 -206.5t249 -71.5t264.5 78v-181q-115 -65 -303 -65q-242 0 -385 145.5t-143 388zM246 1475h223l195 -332h-172zM285 594h501v37q-4 117 -63 185.5t-165.5 68.5t-180.5 -75 t-92 -216z" />
<glyph unicode="&#xe9;" horiz-adv-x="1075" d="M84 523.5q0 242.5 131 385t332 142.5t317.5 -124t116.5 -358q0 -63 -12 -133h-682q20 -135 114.5 -206.5t249 -71.5t264.5 78v-181q-115 -65 -303 -65q-242 0 -385 145.5t-143 388zM285 594h501v37q-4 117 -63 185.5t-165.5 68.5t-180.5 -75t-92 -216zM500 1143l194 332 h224l-246 -332h-172z" />
<glyph unicode="&#xea;" horiz-adv-x="1075" d="M84 523.5q0 242.5 131 385t332 142.5t317.5 -124t116.5 -358q0 -63 -12 -133h-682q20 -135 114.5 -206.5t249 -71.5t264.5 78v-181q-115 -65 -303 -65q-242 0 -385 145.5t-143 388zM201 1143l276 332h185l276 -332h-199l-172 209l-168 -209h-198zM285 594h501v37 q-4 117 -63 185.5t-165.5 68.5t-180.5 -75t-92 -216z" />
<glyph unicode="&#xeb;" horiz-adv-x="1075" d="M84 523.5q0 242.5 131 385t332 142.5t317.5 -124t116.5 -358q0 -63 -12 -133h-682q20 -135 114.5 -206.5t249 -71.5t264.5 78v-181q-115 -65 -303 -65q-242 0 -385 145.5t-143 388zM227 1310.5q0 53.5 35 88.5t89.5 35t89 -35t34.5 -88.5t-34.5 -88t-89 -34.5t-89.5 34.5 t-35 88zM285 594h501v37q-4 117 -63 185.5t-165.5 68.5t-180.5 -75t-92 -216zM680 1310.5q0 53.5 35 88.5t88 35t89 -35t36 -88.5t-36 -88t-89 -34.5t-88 34.5t-35 88z" />
<glyph unicode="&#xec;" horiz-adv-x="501" d="M-94 1475h223l195 -332h-172zM150 0v1038h202v-1038h-202z" />
<glyph unicode="&#xed;" horiz-adv-x="501" d="M150 0v1038h202v-1038h-202zM180 1143l195 332h223l-246 -332h-172z" />
<glyph unicode="&#xee;" horiz-adv-x="501" d="M-115 1143l277 332h184l277 -332h-199l-172 209l-168 -209h-199zM150 0v1038h202v-1038h-202z" />
<glyph unicode="&#xef;" horiz-adv-x="501" d="M-98 1313q0 53 34.5 88t88 35t89.5 -36t36 -87t-36 -87t-89.5 -36t-88 35t-34.5 88zM150 0v1038h202v-1038h-202zM354 1313q0 51 36 87t88 36t88 -35t36 -88t-36 -88t-88 -35t-88 36t-36 87z" />
<glyph unicode="&#xf0;" horiz-adv-x="1081" d="M76 421q0 185 117.5 297.5t293 112.5t295.5 -126q-35 203 -166 378l-288 -145v137l204 103q-117 119 -266 202h291q76 -51 141 -118l246 122v-137l-164 -82q209 -274 209 -602q0 -276 -123 -428.5t-333.5 -152.5t-333.5 127t-123 312zM285 408.5q0 -113.5 66.5 -179 t174 -65.5t181 82t84.5 266q-111 141 -277 141q-102 0 -165.5 -65.5t-63.5 -179z" />
<glyph unicode="&#xf1;" horiz-adv-x="1128" d="M141 0v1038h201v-178q92 193 324 193q154 0 243.5 -94.5t89.5 -256.5v-702h-200v655q0 109 -54.5 166.5t-152.5 57.5t-174 -83t-76 -233v-563h-201zM217 1280q29 63 87 107.5t126 44.5t154 -42t125 -42q76 0 118 88l115 -86q-71 -152 -223 -152q-59 0 -142 42t-122 42 q-74 0 -138 -94z" />
<glyph unicode="&#xf2;" d="M84 512q0 231 135 386t364.5 155t358.5 -150.5t129 -384t-132 -385t-362.5 -151.5t-361.5 149.5t-131 380.5zM256 1475h223l195 -332h-172zM293 517q0 -155 75.5 -260t211 -105t208 102t72.5 262t-69.5 263.5t-210 103.5t-214 -105.5t-73.5 -260.5z" />
<glyph unicode="&#xf3;" d="M84 512q0 231 135 386t364.5 155t358.5 -150.5t129 -384t-132 -385t-362.5 -151.5t-361.5 149.5t-131 380.5zM293 517q0 -155 75.5 -260t211 -105t208 102t72.5 262t-69.5 263.5t-210 103.5t-214 -105.5t-73.5 -260.5zM516 1143l195 332h223l-246 -332h-172z" />
<glyph unicode="&#xf4;" d="M84 512q0 231 135 386t364.5 155t358.5 -150.5t129 -384t-132 -385t-362.5 -151.5t-361.5 149.5t-131 380.5zM215 1141l277 332h184l276 -332h-198l-172 209l-168 -209h-199zM293 517q0 -155 75.5 -260t211 -105t208 102t72.5 262t-69.5 263.5t-210 103.5t-214 -105.5 t-73.5 -260.5z" />
<glyph unicode="&#xf5;" d="M84 512q0 231 135 386t364.5 155t358.5 -150.5t129 -384t-132 -385t-362.5 -151.5t-361.5 149.5t-131 380.5zM221 1280q29 63 87.5 107.5t126 44.5t153.5 -42t125 -42q76 0 118 88l115 -86q-71 -152 -223 -152q-59 0 -142 42t-122 42q-74 0 -137 -94zM293 517 q0 -155 75.5 -260t211 -105t208 102t72.5 262t-69.5 263.5t-210 103.5t-214 -105.5t-73.5 -260.5z" />
<glyph unicode="&#xf6;" d="M84 512q0 231 135 386t364.5 155t358.5 -150.5t129 -384t-132 -385t-362.5 -151.5t-361.5 149.5t-131 380.5zM246 1308.5q0 53.5 34.5 88.5t88 35t89.5 -36t36 -87.5t-36 -87t-89.5 -35.5t-88 34.5t-34.5 88zM293 517q0 -155 75.5 -260t211 -105t208 102t72.5 262 t-69.5 263.5t-210 103.5t-214 -105.5t-73.5 -260.5zM698 1308.5q0 51.5 36 87.5t88 36t88 -35t36 -88.5t-36 -88t-88 -34.5t-88 35.5t-36 87z" />
<glyph unicode="&#xf7;" d="M109 606v180h935v-180h-935zM453 332q0 49 35.5 86t85 37t85 -37t35.5 -86t-35.5 -85t-85 -36t-85 36t-35.5 85zM453 1061q0 49 35.5 85t85 36t85 -36t35.5 -85t-35.5 -86t-85 -37t-85 37t-35.5 86z" />
<glyph unicode="&#xf8;" horiz-adv-x="1153" d="M102 -18l121 161q-121 145 -121 372.5t135.5 382.5t356.5 155q150 0 258 -64l47 64h193l-121 -162q121 -145 121 -375.5t-133.5 -382t-364.5 -151.5q-145 0 -254 63l-47 -63h-191zM293 537.5q0 -142.5 47 -236.5l414 557q-66 43 -160 43q-143 0 -222 -110.5t-79 -253z M440 180q66 -47 156 -47q147 0 225 107.5t78 258t-43 238.5z" />
<glyph unicode="&#xf9;" horiz-adv-x="1128" d="M129 330v708h203v-659q0 -106 52 -162.5t156.5 -56.5t175 82t70.5 231v565h201v-1038h-201v178q-82 -190 -323 -190q-154 0 -244 91t-90 251zM233 1473h224l194 -332h-172z" />
<glyph unicode="&#xfa;" horiz-adv-x="1128" d="M129 330v708h203v-659q0 -106 52 -162.5t156.5 -56.5t175 82t70.5 231v565h201v-1038h-201v178q-82 -190 -323 -190q-154 0 -244 91t-90 251zM492 1143l194 332h223l-245 -332h-172z" />
<glyph unicode="&#xfb;" horiz-adv-x="1128" d="M129 330v708h203v-659q0 -106 52 -162.5t156.5 -56.5t175 82t70.5 231v565h201v-1038h-201v178q-82 -190 -323 -190q-154 0 -244 91t-90 251zM195 1143l276 332h184l277 -332h-199l-172 209l-168 -209h-198z" />
<glyph unicode="&#xfc;" horiz-adv-x="1128" d="M129 330v708h203v-659q0 -106 52 -162.5t156.5 -56.5t175 82t70.5 231v565h201v-1038h-201v178q-82 -190 -323 -190q-154 0 -244 91t-90 251zM213 1308.5q0 53.5 35 88.5t88 35t89 -36t36 -87.5t-36 -87t-89 -35.5t-88 34.5t-35 88zM666 1308.5q0 51.5 35.5 87.5t88 36 t88 -35t35.5 -88.5t-35.5 -88t-88 -34.5t-88 35.5t-35.5 87z" />
<glyph unicode="&#xfd;" horiz-adv-x="1032" d="M14 1038h224l129 -338l161 -438q27 86 265 776h213l-375 -1009q-150 -400 -457 -400q-55 0 -94 11v172q33 -8 70 -9q199 0 278 220zM457 1143l194 332h223l-245 -332h-172z" />
<glyph unicode="&#xfe;" horiz-adv-x="1187" d="M141 -397v1845h201v-569q106 174 315 174t328 -148.5t119 -381t-122 -385t-326.5 -152.5t-313.5 172v-555h-201zM342 524.5q0 -182.5 85 -272.5t199.5 -90t192.5 95t78 262t-76 262.5t-192.5 95.5t-201.5 -85t-85 -267.5z" />
<glyph unicode="&#xff;" horiz-adv-x="1032" d="M14 1038h224l129 -338l161 -438q27 86 265 776h213l-375 -1009q-150 -400 -457 -400q-55 0 -94 11v172q33 -8 70 -9q199 0 278 220zM184 1308.5q0 53.5 35 88.5t88 35t89 -36t36 -87.5t-36 -87t-89 -35.5t-88 34.5t-35 88zM637 1308.5q0 51.5 36 87.5t88 36t88 -35 t36 -88.5t-36 -88t-88 -34.5t-88 35.5t-36 87z" />
<glyph unicode="&#x152;" horiz-adv-x="2023" d="M94 696.5q0 323.5 167 517t456 193.5q248 0 405 -162v135h787v-176h-586v-426h520v-176h-520v-426h596v-176h-797v147q-160 -164 -403 -163q-287 0 -456 194.5t-169 518zM315 696.5q0 -239.5 108.5 -378t298 -138.5t295 137.5t105.5 379t-105.5 377.5t-298 136t-298 -137 t-105.5 -376.5z" />
<glyph unicode="&#x153;" horiz-adv-x="1820" d="M84 513q0 232 130 386t349 154q250 0 377 -187q135 184 369 185q203 0 314.5 -125t111.5 -363q0 -57 -13 -127h-680q23 -133 117 -205.5t244.5 -72.5t261.5 78v-181q-119 -65 -301 -65q-272 0 -418 190q-131 -199 -370.5 -198.5t-365.5 150t-126 381.5zM293 517 q0 -157 70.5 -261t203.5 -104t202 101t69 263t-64.5 264.5t-204 102.5t-208 -104.5t-68.5 -261.5zM1040 594h500v45q-4 117 -65.5 181.5t-164 64.5t-177 -74t-93.5 -217z" />
<glyph unicode="&#x178;" horiz-adv-x="1245" d="M47 1380h242q293 -606 329 -694q18 61 238 492l100 202h242l-473 -866v-514h-211v514zM279 1650.5q0 53.5 34.5 88.5t88 35t89 -35t35.5 -88.5t-35.5 -88t-89 -34.5t-88 34.5t-34.5 88zM731 1650.5q0 53.5 36 88.5t88 35t88 -35t36 -88.5t-36 -88t-88 -34.5t-88 34.5 t-36 88z" />
<glyph unicode="&#x2c6;" horiz-adv-x="909" d="M86 1303l276 331h185l276 -331h-198l-172 208l-168 -208h-199z" />
<glyph unicode="&#x2dc;" horiz-adv-x="909" d="M104 1407q29 63 87.5 107.5t126 44.5t153.5 -42t125 -42q76 0 119 88l114 -86q-71 -152 -223 -152q-59 0 -142 42t-124 42q-72 0 -135 -94z" />
<glyph unicode="&#x2000;" horiz-adv-x="967" />
<glyph unicode="&#x2001;" horiz-adv-x="1935" />
<glyph unicode="&#x2002;" horiz-adv-x="967" />
<glyph unicode="&#x2003;" horiz-adv-x="1935" />
<glyph unicode="&#x2004;" horiz-adv-x="645" />
<glyph unicode="&#x2005;" horiz-adv-x="483" />
<glyph unicode="&#x2006;" horiz-adv-x="322" />
<glyph unicode="&#x2007;" horiz-adv-x="322" />
<glyph unicode="&#x2008;" horiz-adv-x="241" />
<glyph unicode="&#x2009;" horiz-adv-x="387" />
<glyph unicode="&#x200a;" horiz-adv-x="107" />
<glyph unicode="&#x2010;" horiz-adv-x="716" d="M109 461v172h499v-172h-499z" />
<glyph unicode="&#x2011;" horiz-adv-x="716" d="M109 461v172h499v-172h-499z" />
<glyph unicode="&#x2012;" horiz-adv-x="716" d="M109 461v172h499v-172h-499z" />
<glyph unicode="&#x2013;" horiz-adv-x="1114" d="M109 473v160h897v-160h-897z" />
<glyph unicode="&#x2014;" horiz-adv-x="1691" d="M109 477v160h1474v-160h-1474z" />
<glyph unicode="&#x2018;" horiz-adv-x="419" d="M33 942l254 481h166l-183 -481h-237z" />
<glyph unicode="&#x2019;" horiz-adv-x="421" d="M35 942l180 481h240l-256 -481h-164z" />
<glyph unicode="&#x201a;" horiz-adv-x="421" d="M-2 -254l182 479h238l-254 -479h-166z" />
<glyph unicode="&#x201c;" horiz-adv-x="739" d="M33 942l260 481h160l-185 -481h-235zM369 942l241 481h162l-178 -481h-225z" />
<glyph unicode="&#x201d;" horiz-adv-x="739" d="M35 942l176 481h225l-241 -481h-160zM352 942l185 481h235l-258 -481h-162z" />
<glyph unicode="&#x201e;" horiz-adv-x="739" d="M2 -254l178 479h223l-239 -479h-162zM322 -254l184 479h235l-260 -479h-159z" />
<glyph unicode="&#x2022;" horiz-adv-x="905" d="M180 729q0 117 77 194.5t192.5 77.5t194.5 -78.5t79 -193.5t-78 -193.5t-193.5 -78.5t-193.5 77.5t-78 194.5z" />
<glyph unicode="&#x2026;" horiz-adv-x="1603" d="M88 123q0 57 40 97t98.5 40t98.5 -40t40 -97t-40 -98t-98.5 -41t-98.5 41t-40 98zM664 123q0 57 39.5 97t98 40t98.5 -40t40 -97t-40 -98t-97.5 -41t-98 41t-40.5 98zM1239 123q0 57 40 97t98.5 40t98.5 -40t40 -97t-40 -98t-98.5 -41t-98.5 41t-40 98z" />
<glyph unicode="&#x202f;" horiz-adv-x="387" />
<glyph unicode="&#x2039;" horiz-adv-x="655" d="M57 518l310 332h217l-299 -332l299 -332h-217z" />
<glyph unicode="&#x203a;" horiz-adv-x="651" d="M72 186l299 332l-299 332h217l309 -332l-309 -332h-217z" />
<glyph unicode="&#x205f;" horiz-adv-x="483" />
<glyph unicode="&#x20ac;" horiz-adv-x="1228" d="M98 440v138h181q-4 53 -4.5 85.5t4.5 98.5h-181v137h205q59 215 213 335t339 120t292 -58v-198q-98 63 -237.5 63t-238 -67.5t-145.5 -194.5h398v-137h-430q-6 -49 -6.5 -90t4.5 -94h432v-138h-402q47 -129 145.5 -198.5t237.5 -69.5t242 68v-201q-106 -55 -295.5 -55 t-342.5 122.5t-208 333.5h-203z" />
<glyph unicode="&#x2122;" horiz-adv-x="1456" d="M8 1253v127h494v-127h-172v-577h-144v577h-178zM567 678l58 702h172q162 -449 180 -528q23 74 192 528h174l60 -702h-141l-23 293l-6 243q-18 -80 -80 -245l-106 -279h-136l-98 279l-78 245q4 -84 -24 -536h-144z" />
<glyph unicode="&#x25fc;" horiz-adv-x="1044" d="M0 0v1044h1044v-1044h-1044z" />
<glyph unicode="&#xfb01;" horiz-adv-x="1089" d="M61 883v155h166v80q0 164 88 256t252 92t312 -75v-174q-166 78 -295 77q-156 0 -156 -178v-78h535v-1038h-201v883h-334v-883h-201v883h-166z" />
<glyph unicode="&#xfb02;" horiz-adv-x="1093" d="M61 883v155h166v80q0 164 88 256t261.5 92t375.5 -108v-1358h-200v1266q-82 29 -158 28q-166 0 -166 -178v-78h219v-155h-219v-883h-201v883h-166z" />
<glyph unicode="&#xfb03;" horiz-adv-x="1718" d="M61 883v155h166v80q0 164 89.5 256t249 92t306.5 -71q88 72 239 71.5t302 -75.5v-174q-166 78 -295 77q-156 0 -155 -178v-78h534v-1038h-201v883h-333v-883h-201v883h-334v-883h-201v883h-166zM428 1038h334v80q0 74 18 135q-104 41 -190 41q-162 0 -162 -178v-78z" />
<glyph unicode="&#xfb04;" horiz-adv-x="1630" d="M61 883v155h166v80q0 164 89.5 256t251 92t304.5 -73q82 74 246 73.5t371 -108.5v-1358h-203v1266q-82 29 -158.5 28.5t-119.5 -40.5t-43 -138v-78h217v-155h-217v-883h-201v883h-336v-883h-201v883h-166zM428 1038h336v80q0 74 18 135q-104 41 -192 41q-162 0 -162 -178 v-78z" />
</font>
</defs>
</svg>
