<?xml version="1.0" standalone="no"?>
<!DOCTYPE svg PUBLIC "-//W3C//DTD SVG 1.1//EN" "http://www.w3.org/Graphics/SVG/1.1/DTD/svg11.dtd" >
<svg xmlns="http://www.w3.org/2000/svg" xmlns:xlink="http://www.w3.org/1999/xlink" version="1.1">
<metadata></metadata>
<defs>
<font id="hind_regularregular" horiz-adv-x="1105" >
<font-face units-per-em="2048" ascent="1638" descent="-410" />
<missing-glyph horiz-adv-x="499" />
<glyph horiz-adv-x="0" />
<glyph horiz-adv-x="682" />
<glyph horiz-adv-x="0" />
<glyph horiz-adv-x="0" />
<glyph unicode="&#xd;" horiz-adv-x="681" />
<glyph unicode=" "  horiz-adv-x="499" />
<glyph unicode="&#x09;" horiz-adv-x="499" />
<glyph unicode="&#xa0;" horiz-adv-x="499" />
<glyph unicode="!" horiz-adv-x="514" d="M133 103.5q0 50.5 35 86t86 35.5t87 -35.5t36 -86t-35 -85t-88 -34.5t-87 34.5t-34 85zM178 418v962h158v-962h-158z" />
<glyph unicode="&#x22;" horiz-adv-x="604" d="M90 909v486h146v-486h-146zM371 909v486h143v-486h-143z" />
<glyph unicode="#" horiz-adv-x="1454" d="M109 348v129h249l88 422h-227v131h256l74 350h147l-73 -350h366l74 350h145l-73 -350h211v-131h-238l-88 -422h219v-129h-246l-73 -348h-150l74 348h-367l-74 -348h-145l74 348h-223zM504 477h366l91 422h-367z" />
<glyph unicode="$" horiz-adv-x="1034" d="M109 1022q0 160 111.5 258t283.5 111v213h141v-218q121 -14 209 -57v-174q-125 82 -273.5 82t-222 -58.5t-73.5 -152.5q0 -51 19.5 -89t72.5 -73q72 -47 138.5 -76.5t109.5 -49t92 -47t104 -73.5q109 -88 109 -253.5t-107.5 -264t-281.5 -112.5v-211h-142v213 q-168 16 -284 84v178q150 -113 364 -113q129 0 204 58.5t75 164.5q0 49 -19.5 87t-72 73t-82 50.5t-84 38t-97.5 42t-91 47t-99 72.5q-104 90 -104 250z" />
<glyph unicode="%" horiz-adv-x="1734" d="M100 1054q0 134 95.5 229t228.5 95t229.5 -95t96.5 -229t-96.5 -229.5t-229.5 -95.5t-228.5 95.5t-95.5 229.5zM242 1054.5q0 -75.5 53 -130t129 -54.5t130 54.5t54 130t-54 129t-130 53.5t-129 -53.5t-53 -129zM422 -2l731 1364h158l-736 -1364h-153zM987 310 q0 134 94.5 229.5t228.5 95.5t229 -96.5t95 -229.5t-95 -228t-229 -95t-228.5 95t-94.5 229zM1126 309q0 -76 54.5 -129t130 -53t130 53t54.5 129t-53 130.5t-130 54.5t-131.5 -54.5t-54.5 -130.5z" />
<glyph unicode="&#x26;" horiz-adv-x="1439" d="M133 360q0 231 324 355q-96 104 -141.5 185t-45.5 171q0 154 104.5 248t278.5 94t280.5 -101.5t106.5 -252.5q0 -117 -74.5 -211t-250.5 -176l346 -324q49 90 57 201h156q-12 -176 -98 -307l260 -242h-219l-140 129q-166 -145 -412.5 -145t-389 105.5t-142.5 270.5z M301 351q0 -93 96.5 -155.5t268.5 -62t299 102.5l-406 376q-131 -49 -194.5 -108.5t-63.5 -152.5zM438 1082.5q0 -78.5 38 -143.5t136 -165q137 63 199.5 130t62.5 154t-57 147.5t-157.5 60.5t-161 -52.5t-60.5 -131z" />
<glyph unicode="'" horiz-adv-x="325" d="M90 909v486h146v-486h-146z" />
<glyph unicode="(" horiz-adv-x="634" d="M147 535q0 250 84 487.5t230 425.5h178q-322 -434 -322 -923.5t338 -925.5h-180q-328 418 -328 936z" />
<glyph unicode=")" horiz-adv-x="634" d="M-20 -401q338 436 337.5 927.5t-321.5 921.5h180q145 -188 229 -425.5t84 -487.5q0 -516 -329 -936h-180z" />
<glyph unicode="*" horiz-adv-x="835" d="M59 1071l39 127l191 -61q43 -14 80 -47q-18 41 -19 94v196h131v-196q0 -53 -16 -90q31 31 80 45l188 59l41 -125l-188 -61q-33 -13 -74 -13h-14q39 -20 65 -61l115 -160l-105 -78l-116 160q-29 41 -39 80q-10 -41 -39 -82l-117 -158l-106 76l116 162q33 43 64 59h-17 q-39 0 -73 13z" />
<glyph unicode="+" horiz-adv-x="1132" d="M117 623v147h366v387h152v-387h383v-147h-383v-387h-152v387h-366z" />
<glyph unicode="," horiz-adv-x="460" d="M-16 -252l190 459h215l-264 -459h-141z" />
<glyph unicode="-" horiz-adv-x="712" d="M117 479v142h479v-142h-479z" />
<glyph unicode="." horiz-adv-x="339" d="M49 104.5q0 51.5 35 86t86 34.5t86 -34.5t35 -86t-35 -86t-86 -34.5t-86 34.5t-35 86z" />
<glyph unicode="/" horiz-adv-x="825" d="M-18 -209l745 1657h166l-748 -1657h-163z" />
<glyph unicode="0" horiz-adv-x="1114" d="M88 674.5q0 314.5 128 498t341 183.5t341 -183.5t128 -498t-123 -502.5t-342 -188t-346 188t-127 502.5zM254 674q0 -252 86 -394.5t220 -142.5t217 139.5t83 396.5t-87 393t-215 136t-216 -138t-88 -390z" />
<glyph unicode="1" horiz-adv-x="661" d="M37 973v174l317 192h152v-1339h-160v1163z" />
<glyph unicode="2" horiz-adv-x="1011" d="M78 0v137q635 479 635 799q0 127 -74 195.5t-199 68.5q-162 0 -319 -121v162q145 113 329.5 113t307.5 -104.5t123 -297.5q0 -362 -580 -811h623v-141h-846z" />
<glyph unicode="3" horiz-adv-x="954" d="M78 55v162q152 -80 306.5 -80t227 67.5t72.5 176t-81 167t-232 58.5h-86v142h86q115 0 193.5 64.5t78.5 173t-67.5 163.5t-197.5 55t-259 -84v158q119 76 296 76t286.5 -101.5t109.5 -251.5q0 -109 -54.5 -194.5t-160.5 -128.5q117 -27 185.5 -108t68.5 -201 q0 -164 -114.5 -272.5t-315.5 -108.5t-342 67z" />
<glyph unicode="4" d="M86 326v141l510 872h262v-872h199v-141h-199v-326h-160v326h-612zM250 467h448v776z" />
<glyph unicode="5" horiz-adv-x="1042" d="M121 53v160q131 -78 317 -78q344 0 344 289q0 117 -79.5 181.5t-218 64.5t-298.5 -72v741h672v-141h-512v-401q92 20 160 20q205 0 324.5 -108.5t119.5 -299t-130 -308t-344 -117.5t-355 69z" />
<glyph unicode="6" horiz-adv-x="1077" d="M106 606q0 334 164 553t451 219q92 0 188 -30v-158q-88 39 -186 39q-193 0 -307.5 -144.5t-141.5 -363.5q135 141 327 141t297.5 -116.5t105.5 -315.5t-116 -326t-306 -127q-229 0 -352.5 174.5t-123.5 454.5zM268 567q8 -217 93 -328.5t211 -111.5t195 86t69 219 t-69 209t-179 76q-184 0 -320 -150z" />
<glyph unicode="7" horiz-adv-x="923" d="M25 1198v141h874v-141l-555 -1198h-172l555 1198h-702z" />
<glyph unicode="8" horiz-adv-x="1097" d="M104 338q0 121 64.5 206t177.5 124q-219 84 -219 309q0 178 123 277.5t294 99.5t294 -97.5t123 -281.5q0 -104 -57.5 -183t-158.5 -120q248 -76 248 -324q0 -166 -129 -265t-319.5 -99t-315.5 96t-125 258zM268 351.5q0 -99.5 72 -162t206 -62.5t207.5 67.5t73.5 167 t-71.5 167t-210.5 65.5t-208 -72.5t-69 -170zM291 968.5q0 -106.5 72.5 -166t183 -59.5t180.5 62.5t70 168t-65.5 171t-185.5 65.5t-187.5 -67.5t-67.5 -174z" />
<glyph unicode="9" horiz-adv-x="1032" d="M74 912.5q0 193.5 112.5 318.5t307.5 125q225 0 338.5 -168t113.5 -424q0 -365 -146.5 -572.5t-437.5 -207.5q-119 0 -231 39v159q106 -47 225 -47q371 0 422 465q-102 -121 -303 -121q-164 0 -282.5 120t-118.5 313.5zM242 912.5q0 -138.5 73.5 -214t200.5 -75.5 q168 0 270 131v10q0 195 -68.5 318.5t-219.5 123.5q-117 0 -186.5 -77.5t-69.5 -216z" />
<glyph unicode=":" horiz-adv-x="481" d="M121 117q0 51 33.5 86t85 35t86 -35t34.5 -86t-34.5 -85t-86 -34t-85 34t-33.5 85zM121 777q0 50 33.5 85t85 35t86 -35t34.5 -85t-34.5 -84t-86 -34t-85 34t-33.5 84z" />
<glyph unicode=";" horiz-adv-x="460" d="M-16 -252l190 459h215l-264 -459h-141zM143 775q0 50 34 85t85 35t86 -35t35 -85t-35 -84t-86 -34t-85 34t-34 84z" />
<glyph unicode="&#x3c;" horiz-adv-x="1079" d="M117 621v155l862 385v-166q-541 -223 -692 -295q139 -70 692 -299v-168z" />
<glyph unicode="=" horiz-adv-x="1132" d="M117 420v141h901v-141h-901zM117 834v139h901v-139h-901z" />
<glyph unicode="&#x3e;" horiz-adv-x="1079" d="M100 233v168q537 221 691 299q-147 72 -691 295v166l863 -385v-155z" />
<glyph unicode="?" horiz-adv-x="925" d="M92 1149v164q133 84 327.5 84t311.5 -99.5t117 -274.5t-121 -271.5t-281 -110.5l-2 -223h-155l-2 340q188 0 290.5 64.5t102.5 181t-67.5 182t-213 65.5t-307.5 -102zM244 103.5q0 50.5 34.5 86t85 35.5t87 -35.5t36.5 -86t-35.5 -85t-88 -34.5t-86 34.5t-33.5 85z" />
<glyph unicode="@" horiz-adv-x="1853" d="M123 401q0 367 258 610.5t625 243.5q315 0 533 -196.5t218 -517.5q0 -236 -110.5 -367t-251.5 -131q-188 0 -240 176q-109 -182 -303 -182q-152 0 -239 107.5t-87 280.5t114 299t279.5 126t243.5 -131q0 23 8 121h136l-31 -283q-8 -109 -8 -176q0 -207 135 -207 q90 0 150.5 99.5t60.5 256.5q0 279 -173 433.5t-453.5 154.5t-494.5 -205.5t-214 -503.5t166.5 -456t389 -158t382.5 88l-9 -157q-137 -70 -360 -70q-334 0 -529.5 210t-195.5 535zM680 417q0 -118 55.5 -182.5t140.5 -64.5t157.5 57.5t105.5 159.5q4 74 8 113 q-33 215 -221 215q-106 0 -176 -90t-70 -208z" />
<glyph unicode="A" horiz-adv-x="1327" d="M72 0l481 1380h229l473 -1380h-178l-121 362h-583l-123 -362h-178zM420 504h489l-241 743q-29 -104 -248 -743z" />
<glyph unicode="B" horiz-adv-x="1169" d="M158 0v1380h415q213 0 341 -98t128 -264q0 -119 -66.5 -206t-170.5 -110q115 -18 195.5 -103t80.5 -240.5t-109.5 -257t-309.5 -101.5h-504zM324 141h313q131 0 201.5 60.5t70.5 177.5t-78.5 182.5t-224.5 65.5h-282v-486zM324 768h221q166 0 245.5 69.5t79.5 173 t-74.5 166t-222.5 62.5h-249v-471z" />
<glyph unicode="C" horiz-adv-x="1232" d="M98 687.5q0 320.5 198 516t497 195.5q215 0 350 -74v-170q-90 47 -161.5 67.5t-188.5 20.5q-223 0 -372 -151.5t-149 -400.5t147.5 -400.5t391.5 -151.5q197 0 336 105v-174q-127 -86 -348 -86q-311 0 -506 191.5t-195 512z" />
<glyph unicode="D" horiz-adv-x="1353" d="M158 0v1380h409q305 0 501 -189.5t196 -489.5t-181.5 -500.5t-507.5 -200.5h-417zM326 145h247q256 0 387.5 159t131.5 390.5t-146.5 385t-380.5 153.5h-239v-1088z" />
<glyph unicode="E" horiz-adv-x="1026" d="M158 0v1380h760v-145h-594v-473h524v-146h-524v-471h604v-145h-770z" />
<glyph unicode="F" horiz-adv-x="1001" d="M158 0v1380h757v-145h-591v-490h520v-145h-520v-600h-166z" />
<glyph unicode="G" horiz-adv-x="1372" d="M98 684q0 322 193.5 521.5t488.5 199.5q244 0 404 -94v-178q-167 111 -392 111h-2q-227 -1 -372.5 -151.5t-145.5 -403.5t143.5 -399.5t395.5 -146.5q139 0 258 56v430h-303v145h469v-659h-2l2 -6q-166 -125 -428 -125q-319 0 -514 189t-195 511z" />
<glyph unicode="H" horiz-adv-x="1316" d="M158 0v1380h166v-606h669v606h166v-1380h-166v625h-669v-625h-166z" />
<glyph unicode="I" horiz-adv-x="505" d="M170 0v1380h166v-1380h-166z" />
<glyph unicode="J" horiz-adv-x="733" d="M61 45v160q82 -53 172 -53q178 0 179 188v1040h166v-1026q0 -354 -322 -354q-115 0 -195 45z" />
<glyph unicode="K" horiz-adv-x="1173" d="M158 0v1380h166v-1380h-166zM356 682l527 698h204l-526 -698l555 -682h-215z" />
<glyph unicode="L" horiz-adv-x="976" d="M158 0v1380h166v-1230h587v-150h-753z" />
<glyph unicode="M" horiz-adv-x="1755" d="M143 0l101 1380h211l182 -503l221 -644q139 395 424 1147h211l121 -1380h-166l-96 1157q-133 -373 -416 -1126h-158l-391 1114q0 -55 -78 -1145h-166z" />
<glyph unicode="N" horiz-adv-x="1378" d="M158 0v1380h209l346 -581l350 -598q-8 199 -8 596v583h166v-1380h-209q-573 956 -699 1182q10 -213 11 -600v-582h-166z" />
<glyph unicode="O" horiz-adv-x="1433" d="M98 697.5q0 324.5 167 517t455 192.5t452.5 -191.5t164.5 -518t-166.5 -520t-449.5 -193.5t-453 194.5t-170 519zM272 697q0 -257 122 -406.5t329 -149.5t322.5 147.5t115.5 407.5t-116.5 407.5t-326.5 147.5t-328 -148.5t-118 -405.5z" />
<glyph unicode="P" horiz-adv-x="1116" d="M158 0v1380h362q240 0 378 -123.5t138 -314t-137 -312.5t-362 -122h-213v-508h-166zM324 649h223q150 2 235.5 84t85.5 210t-89 211t-249 85h-206v-590z" />
<glyph unicode="Q" horiz-adv-x="1452" d="M98 697.5q0 324.5 167 517t455 192.5t452.5 -191.5t164.5 -519.5q0 -238 -91 -408.5t-257 -248.5l410 -254l-180 -76l-410 281q-43 -6 -90 -6q-281 0 -451 194.5t-170 519zM272 697q0 -257 122 -406.5t329 -149.5t322.5 147.5t115.5 407.5t-116.5 407.5t-326.5 147.5 t-328 -148.5t-118 -405.5z" />
<glyph unicode="R" horiz-adv-x="1122" d="M158 0v1380h346q240 0 363.5 -112.5t123.5 -311.5q-4 -143 -75.5 -243.5t-202.5 -141.5l362 -571h-198l-338 545h-215v-545h-166zM324 686h208q141 0 216 77t75 198q0 276 -309 276h-190v-551z" />
<glyph unicode="S" horiz-adv-x="1073" d="M135 1023q0 171 126 270.5t310.5 99.5t309.5 -64v-174q-125 82 -274.5 82t-223.5 -58.5t-74 -152.5q0 -100 88 -162q66 -43 164 -87t135 -61.5t95.5 -55t89.5 -74.5q75 -91 75 -216q0 -185 -124.5 -284.5t-331.5 -99.5t-359 88v178q150 -113 365 -113q129 0 202.5 57.5 t73.5 165.5q0 90 -73 146q-82 61 -190.5 107.5t-155 71t-109.5 71.5q-119 94 -119 265z" />
<glyph unicode="T" horiz-adv-x="987" d="M37 1235v145h911v-145h-373v-1235h-165v1235h-373z" />
<glyph unicode="U" horiz-adv-x="1320" d="M156 508v872h166v-870q0 -190 91 -280.5t244 -90.5q342 0 342 381v860h166v-856q0 -266 -134 -403t-371.5 -137t-370.5 134t-133 390z" />
<glyph unicode="V" horiz-adv-x="1304" d="M74 1380h178l180 -546l215 -684q104 340 406 1230h178l-481 -1380h-209z" />
<glyph unicode="W" horiz-adv-x="1921" d="M74 1380h174l129 -512l170 -694q117 430 338 1186h166l151 -492l209 -700q78 371 268 1212h168l-323 -1380h-213l-340 1126q-59 -227 -326 -1126h-211z" />
<glyph unicode="X" horiz-adv-x="1255" d="M80 0l444 696l-420 684h195l317 -534l318 534h196l-417 -684l463 -696h-195l-360 555l-345 -555h-196z" />
<glyph unicode="Y" horiz-adv-x="1214" d="M53 1380h193q322 -623 358 -716q10 31 365 716h192l-473 -866v-514h-166v512z" />
<glyph unicode="Z" horiz-adv-x="1165" d="M106 0v137l730 1102h-719v141h911v-135l-729 -1104h760v-141h-953z" />
<glyph unicode="[" horiz-adv-x="634" d="M158 -375v1823h471v-143h-312v-1532h312v-148h-471z" />
<glyph unicode="\" horiz-adv-x="823" d="M-68 1448h166l746 -1659h-164z" />
<glyph unicode="]" horiz-adv-x="634" d="M6 -227h311v1532h-311v143h471v-1823h-471v148z" />
<glyph unicode="^" horiz-adv-x="944" d="M92 680l291 537h186l283 -537h-162l-215 426l-221 -426h-162z" />
<glyph unicode="_" horiz-adv-x="1148" d="M57 -63h1035v-142h-1035v142z" />
<glyph unicode="`" horiz-adv-x="862" d="M236 1634h194l201 -319h-142z" />
<glyph unicode="a" horiz-adv-x="1007" d="M96 302q0 140 114 223t310 83h189v54q0 123 -55.5 185t-204 62t-277.5 -88v162q117 72 307 72q391 0 391 -398v-657h-159v123q-80 -133 -291 -133q-145 0 -234.5 86t-89.5 226zM266 299q0 -78 51.5 -126t156 -48t170 62.5t65.5 158.5v133h-181q-131 0 -196.5 -51 t-65.5 -129z" />
<glyph unicode="b" horiz-adv-x="1167" d="M156 0v1448h161v-565q113 172 312.5 172t324.5 -150.5t125 -382t-117.5 -385t-325.5 -153.5t-319 170v-154h-161zM317 521q0 -202 89.5 -296t215.5 -94t207.5 104.5t81.5 284.5t-85 283.5t-204.5 103.5t-212 -92t-92.5 -294z" />
<glyph unicode="c" horiz-adv-x="964" d="M88 514q0 223 144.5 383t394.5 160q133 0 237 -58v-153q-94 63 -221 63q-175 1 -281 -113q-105 -112 -105 -279q-1 -171 101 -283q100 -112 285 -111q119 0 221 67v-153q-98 -59 -241 -60q-246 0 -390.5 157t-144.5 380z" />
<glyph unicode="d" horiz-adv-x="1161" d="M88 522.5q0 231.5 125 382t324.5 150.5t312.5 -174v567h162v-1448h-162v154q-111 -170 -318.5 -170t-325.5 153.5t-118 385zM256 520q0 -180 82 -284.5t208 -104.5t215 94t89 296t-92 294t-212 92t-205 -103.5t-85 -283.5z" />
<glyph unicode="e" horiz-adv-x="1069" d="M88 521.5q0 242.5 129 386t327.5 143.5t313.5 -125t115 -355q0 -66 -10 -120h-709q18 -154 116.5 -236t265.5 -82t271 72v-152q-121 -63 -295 -63q-236 0 -380 144.5t-144 387zM254 586h557v41q0 129 -69.5 205.5t-189.5 76.5t-202 -84t-96 -239z" />
<glyph unicode="f" horiz-adv-x="673" d="M61 907v131h179v97q0 152 80.5 239.5t224.5 87.5q49 0 100 -14v-148q-49 16 -105 16q0 1 -1 1q-54 0 -96 -45t-42 -139v-95h230v-131h-230v-907h-161v907h-179z" />
<glyph unicode="g" horiz-adv-x="1124" d="M90 521.5q0 232.5 117 382t317.5 149.5t300.5 -187v172h162v-954q0 -238 -131 -357.5t-328.5 -119.5t-330.5 63v162q131 -76 295 -76q334 0 333 330v117q-102 -176 -292.5 -176t-316.5 131t-126 363.5zM258 524q0 -172 86 -263t196.5 -91t197.5 87t87 272.5t-84 281.5 t-205.5 96t-199.5 -105.5t-78 -277.5z" />
<glyph unicode="h" d="M150 0v1448h159v-590q92 195 328 195q150 0 241 -92.5t91 -249.5v-711h-162v672q0 113 -58.5 174t-163 61t-190.5 -88t-86 -252v-567h-159z" />
<glyph unicode="i" horiz-adv-x="477" d="M133 1364q0 45 30 75.5t75 30.5t75.5 -30.5t30.5 -75.5t-30.5 -74.5t-75.5 -29.5t-75 29.5t-30 74.5zM158 0v1038h161v-1038h-161z" />
<glyph unicode="j" horiz-adv-x="466" d="M-94 -225q78 -33 139 -33q115 0 115 149v1147h159v-1151q0 -135 -70.5 -210.5t-195.5 -75.5q-68 0 -147 30v144zM133 1364q0 45 30 75.5t75 30.5t75.5 -30.5t30.5 -75.5t-30.5 -74.5t-75.5 -29.5t-75 29.5t-30 74.5z" />
<glyph unicode="k" horiz-adv-x="983" d="M150 0v1440h159v-1440h-159zM330 545l407 493h193l-410 -493l422 -545h-194z" />
<glyph unicode="l" horiz-adv-x="477" d="M158 0v1448h161v-1448h-161z" />
<glyph unicode="m" horiz-adv-x="1675" d="M150 0v1038h159v-168q86 182 293 183q240 0 303 -203q45 98 126 150.5t181 52.5q162 0 244 -92.5t82 -247.5v-713h-162v672q0 235 -196 235h-2q-98 0 -176 -89t-78 -251v-567h-162v672q0 235 -197 235h-2q-98 0 -176 -89t-78 -251v-567h-159z" />
<glyph unicode="n" d="M150 0v1038h159v-180q92 195 328 195q152 0 242 -92.5t90 -245.5v-715h-162v672q0 115 -58.5 175t-164 60t-190.5 -90t-85 -250v-567h-159z" />
<glyph unicode="o" horiz-adv-x="1150" d="M88 513q0 230 134 385t359.5 155t353.5 -151.5t128 -384t-131 -384t-357.5 -151.5t-356.5 150.5t-130 380.5zM256 516q0 -164 86 -277.5t235.5 -113.5t233.5 111.5t84 280.5t-80 280.5t-235.5 111.5t-239.5 -114.5t-84 -278.5z" />
<glyph unicode="p" horiz-adv-x="1161" d="M150 -403v1441h159v-157q109 174 319 174t327.5 -150.5t117.5 -383t-124 -385t-325.5 -152.5t-314.5 174v-561h-159zM309 522q0 -203 92.5 -297t214 -94t205.5 103.5t84 283.5t-82 284.5t-206.5 104.5t-216 -91t-91.5 -294z" />
<glyph unicode="q" horiz-adv-x="1161" d="M88 521.5q0 232.5 119 383t325.5 150.5t317.5 -170v153h162v-1441h-162v559q-113 -172 -313.5 -172t-324.5 152.5t-124 385zM256 518q0 -180 84 -283.5t206 -103.5t213 93t91 297t-90 295t-215 91t-207 -104.5t-82 -284.5z" />
<glyph unicode="r" horiz-adv-x="667" d="M147 0l3 1038h159v-182q82 193 283 193q37 0 57 -5v-159q-43 14 -88 14q-109 0 -180.5 -100.5t-71.5 -231.5v-567h-162z" />
<glyph unicode="s" horiz-adv-x="843" d="M115 773q0 122 97 199t250.5 77t252.5 -45v-154q-94 57 -258 57q-82 0 -130 -38t-48 -86t14 -75.5t55 -54.5q49 -31 164 -79t188.5 -115.5t73.5 -191.5t-93 -201.5t-268 -77.5t-292 63v158q137 -82 295 -82q94 0 143 37t49 105.5t-54 109.5t-176 89t-192.5 115.5 t-70.5 189.5z" />
<glyph unicode="t" horiz-adv-x="755" d="M45 907v131h166v258h162v-258h286v-131h-286v-608q0 -166 155 -166q80 0 142 47v-153q-68 -37 -152 -37q-307 0 -307 313v604h-166z" />
<glyph unicode="u" d="M137 324v714h162v-673q0 -113 57.5 -172.5t171 -59.5t190.5 90t77 244v571h161v-1038h-161v180q-82 -192 -323 -192h-3q-154 0 -243 91t-89 245z" />
<glyph unicode="v" horiz-adv-x="1034" d="M51 1038h168l295 -911q18 88 154 473l147 438h168l-371 -1038h-198z" />
<glyph unicode="w" horiz-adv-x="1622" d="M51 1038h172q203 -692 246 -880q23 100 248 880h172l254 -882q27 109 262 882h166l-328 -1038h-199l-98 340l-143 518q-25 -100 -234 -858h-198z" />
<glyph unicode="x" horiz-adv-x="978" d="M51 0l348 532l-327 508h186l236 -389l237 389h184l-335 -510l348 -530h-187l-252 410l-260 -410h-178z" />
<glyph unicode="y" horiz-adv-x="1009" d="M16 1038h183l317 -813q16 57 285 813h174l-375 -1011q-80 -211 -189.5 -297t-250.5 -86q-53 0 -86 10v145q31 -8 69 -8q207 0 293 236z" />
<glyph unicode="z" horiz-adv-x="927" d="M90 0v127l526 768h-505v143h698v-118l-533 -775h562v-145h-748z" />
<glyph unicode="{" horiz-adv-x="684" d="M98 459v157q135 0 193 84q47 66 47 160q0 45 -21.5 141.5t-21.5 151.5q0 139 78 223t188 84q43 0 96 -16v-160q-34 19 -67 19q-63 0 -96 -43t-33 -102.5t21.5 -164t21.5 -164.5q0 -115 -64.5 -194.5t-185.5 -97.5q121 -18 185.5 -99.5t64.5 -193.5q0 -61 -21.5 -166 t-21.5 -164t32.5 -102t96.5 -43q33 0 67 18v-158q-43 -16 -96 -16q-113 0 -189.5 83t-76.5 222q0 55 21.5 151.5t21.5 141.5q0 207 -180 244q-18 4 -60 4z" />
<glyph unicode="|" horiz-adv-x="466" d="M160 -397v1820h147v-1820h-147z" />
<glyph unicode="}" horiz-adv-x="684" d="M27 -213q35 -18 83 -18t80.5 43t32.5 102t-20.5 163.5t-20.5 166.5q0 113 64.5 193.5t183.5 99.5q-119 18 -183.5 98t-64.5 194q0 61 20.5 165t20.5 163.5t-32.5 102.5t-81 43t-82.5 -19v160q53 16 96 16q111 0 188.5 -84t77.5 -223q0 -55 -21.5 -151.5t-21.5 -141.5 q0 -94 47 -160q57 -84 193 -84v-157q-137 0 -197 -88q-43 -66 -43 -160q0 -45 21.5 -141.5t21.5 -151.5q0 -139 -76.5 -222t-189.5 -83q-53 0 -96 16v158z" />
<glyph unicode="~" horiz-adv-x="1226" d="M74 502q139 195 319 194q111 0 249 -75.5t204 -75.5q115 0 186 123l121 -86q-119 -185 -293 -185q-96 0 -240.5 76t-201.5 76q-137 0 -236 -141z" />
<glyph unicode="&#xa1;" horiz-adv-x="514" d="M133 940q0 51 34 85t87 34t88 -35t35 -85t-36 -86t-87 -36t-86 36t-35 87zM178 -338v963h158v-963h-158z" />
<glyph unicode="&#xa2;" horiz-adv-x="925" d="M94 513q0 202 120 352.5t329 178.5v216h141v-211q86 -10 160 -45v-152q-97 51 -193 51q-178 0 -283.5 -111.5t-107.5 -277.5q2 -166 103.5 -274.5t287.5 -108.5q106 0 193 49v-151q-68 -33 -160 -43v-213h-141v217q-211 27 -330 174t-119 349z" />
<glyph unicode="&#xa3;" horiz-adv-x="1069" d="M125 0v135q117 55 160 137t43 238q0 27 -4 88h-189v129h174q-16 139 -16 193q0 207 109.5 318.5t308.5 111.5q119 0 221 -52v-159q-98 57 -205 57q-268 0 -268 -268q0 -61 16 -201h369v-129h-357q4 -61 5 -86q0 -158 -42 -240t-120 -131h659v-141h-864z" />
<glyph unicode="&#xa4;" horiz-adv-x="1112" d="M70 256l120 119q-78 109 -77.5 257t82.5 263l-125 125l104 100l123 -125q117 84 263.5 84t260.5 -75l119 116l102 -100l-118 -119q78 -115 77.5 -258t-86.5 -262l127 -125l-102 -100l-127 125q-115 -80 -263.5 -80t-256.5 73l-119 -118zM252 640q0 -132 86 -219t218 -87 t218 86t86 218t-86 220t-218 88t-218 -87t-86 -219z" />
<glyph unicode="&#xa5;" horiz-adv-x="1198" d="M68 1339h188l338 -659l342 659h188l-325 -598h243v-120h-309l-55 -101v-80h364v-118h-364v-322h-168v322h-363v118h363v78l-55 103h-308v120h242z" />
<glyph unicode="&#xa6;" horiz-adv-x="466" d="M160 313h147v-678h-147v678zM160 752v678h147v-678h-147z" />
<glyph unicode="&#xa7;" horiz-adv-x="1048" d="M104.5 618q-0.5 130 85.5 226q-78 78 -77 196q0 170 123.5 261.5t308 91.5t309.5 -64v-174q-125 82 -276 82q-293 0 -293 -190q0 -80 61 -123q53 -39 132 -71t129 -54.5t88 -42t91.5 -56t81.5 -73.5q70 -90 70 -223.5t-88 -231.5q84 -88 84 -217q0 -178 -124 -274.5 t-331 -96.5t-358 90v179q152 -115 364 -115q133 0 206 55t73 149.5t-61.5 145.5t-169 99.5t-134 60.5t-86 44t-86 58.5t-61.5 67.5q-61 70 -61.5 200zM270.5 630q-0.5 -67 19 -106t66.5 -73q74 -51 200 -105.5t169 -77.5q51 61 51 148.5t-63.5 139.5t-143.5 90t-146 66 t-99 44q-53 -59 -53.5 -126z" />
<glyph unicode="&#xa8;" horiz-adv-x="862" d="M119 1481q0 45 30.5 74.5t75.5 29.5t75 -29.5t30 -74.5t-30 -76t-75 -31t-75.5 31t-30.5 76zM532 1481q0 45 30 74.5t75 29.5t75.5 -29.5t30.5 -74.5t-30.5 -76t-75.5 -31t-75 31t-30 76z" />
<glyph unicode="&#xa9;" horiz-adv-x="1589" d="M88 689q0 290 208 499t498.5 209t498.5 -209t208 -499t-208 -498.5t-498.5 -208.5t-498.5 208.5t-208 498.5zM225 688.5q0 -237.5 168 -404.5t403.5 -167t403.5 167t168 404.5t-168 405.5t-403.5 168t-403.5 -168t-168 -405.5zM458 684q1 160 104.5 274.5t281.5 114.5 q96 0 170 -41v-133q-72 47 -172.5 47t-171 -72.5t-69.5 -186.5t70.5 -187.5t173 -73.5t169.5 51v-133q-66 -43 -172 -43q-176 0 -280.5 111.5t-103.5 271.5z" />
<glyph unicode="&#xaa;" horiz-adv-x="716" d="M4 1054q0 122 96.5 192.5t264.5 70.5h153v43q0 104 -46 157.5t-169 53.5t-235 -76v133q109 63 268 64q319 0 319 -336v-553h-133v110q-90 -119 -243 -118q-123 0 -199 68.5t-76 190.5zM145 1053q0 -63 44 -102.5t129 -39.5t142.5 51.5t57.5 120.5v121h-129 q-244 0 -244 -151z" />
<glyph unicode="&#xab;" horiz-adv-x="983" d="M55 518l307 332h179l-299 -332l299 -332h-179zM436 518l307 332h179l-299 -332l299 -332h-179z" />
<glyph unicode="&#xac;" horiz-adv-x="1124" d="M51 700v146h998v-518h-150v372h-848z" />
<glyph unicode="&#xad;" horiz-adv-x="712" d="M117 479v142h479v-142h-479z" />
<glyph unicode="&#xae;" horiz-adv-x="919" d="M20 1173.5q0 190.5 124 315.5t315.5 125t315.5 -125t124 -315.5t-124 -313.5t-315.5 -123t-315.5 123t-124 313.5zM121 1173.5q0 -153.5 93 -248t247.5 -94.5t249 95.5t94.5 248t-94.5 248t-249 95.5t-247.5 -95.5t-93 -249zM326 969v438h125q168 0 167 -139 q0 -88 -73 -123l110 -176h-106l-94 159h-39v-159h-90zM416 1202h51q59 0 59 65.5t-65 65.5h-45v-131z" />
<glyph unicode="&#xaf;" horiz-adv-x="862" d="M141 1419v115h578v-115h-578z" />
<glyph unicode="&#xb0;" horiz-adv-x="727" d="M61 1084q0 130 87.5 215t217.5 85t215 -81.5t85 -210.5t-88.5 -215t-218.5 -86t-214 81.5t-84 211.5zM190 1087.5q0 -73.5 51.5 -125t125 -51.5t121 51.5t47.5 125t-50.5 126t-124 52.5t-122 -52.5t-48.5 -126z" />
<glyph unicode="&#xb1;" horiz-adv-x="1132" d="M117 61v144h901v-144h-901zM117 678v141h366v346h152v-346h383v-141h-383v-346h-152v346h-366z" />
<glyph unicode="&#xb2;" horiz-adv-x="747" d="M96 803v100q406 305 406 510q0 80 -44 119t-114 39q-111 0 -219 -88v141q111 68 227.5 68t200.5 -71t84 -194.5t-98.5 -257t-259.5 -254.5h389v-112h-572z" />
<glyph unicode="&#xb3;" horiz-adv-x="665" d="M72 846v123q102 -57 202 -58q186 0 187 136q0 68 -52.5 106.5t-148.5 38.5h-49v113h49q74 0 124 36.5t50 102.5q0 129 -149 129q-90 0 -189 -64v129q90 53 209 53.5t191.5 -68.5t72.5 -159t-43 -143t-118 -70q76 -6 131 -65.5t55 -156.5t-76 -165.5t-212 -68.5t-234 51z " />
<glyph unicode="&#xb4;" horiz-adv-x="862" d="M236 1315l202 319h193l-254 -319h-141z" />
<glyph unicode="&#xb5;" horiz-adv-x="1118" d="M150 -367v1405h159v-673q0 -109 75 -170.5t182.5 -61.5t174 89t66.5 245v571h162v-1038h-162v158q-74 -170 -272 -170q-135 0 -226 78v-433h-159z" />
<glyph unicode="&#xb6;" horiz-adv-x="1116" d="M53 1032.5q0 141.5 103.5 244.5t292.5 103h137v-1683h-146v1001q-184 0 -285.5 96.5t-101.5 238zM821 -303v1683h146v-1683h-146z" />
<glyph unicode="&#xb7;" horiz-adv-x="475" d="M117 653.5q0 51.5 34.5 86t86 34.5t86 -34.5t34.5 -86t-34.5 -86.5t-86 -35t-86 35t-34.5 86.5z" />
<glyph unicode="&#xb8;" horiz-adv-x="862" d="M276 -397q172 12 173 145q0 70 -48 148h146q37 -51 37 -153.5t-79 -178.5t-229 -80v119z" />
<glyph unicode="&#xb9;" horiz-adv-x="512" d="M20 1413v133l240 137h107v-880h-127v731z" />
<glyph unicode="&#xba;" horiz-adv-x="770" d="M-12 1239q0 195 108.5 326t292.5 131t287.5 -128t103.5 -326t-105.5 -324.5t-290.5 -126.5t-290.5 126.5t-105.5 321.5zM129 1241q0 -139 68.5 -235.5t189.5 -96.5t186.5 94.5t65.5 238.5t-61.5 238.5t-188.5 94.5t-193.5 -97.5t-66.5 -236.5z" />
<glyph unicode="&#xbb;" horiz-adv-x="987" d="M59 186l301 332l-301 332h179l309 -332l-309 -332h-179zM440 186l301 332l-301 332h178l310 -332l-310 -332h-178z" />
<glyph unicode="&#xbf;" horiz-adv-x="925" d="M92 19.5q0 175.5 121 271.5t281 110l2 224h155l2 -340q-188 0 -290.5 -64.5t-102.5 -181.5t67.5 -181.5t215 -64.5t305.5 101v-164q-133 -84 -327.5 -84t-311.5 99t-117 274.5zM453 940q0 51 35.5 85t88 34t86 -34t33.5 -85t-33.5 -87t-85 -36t-88 36t-36.5 87z" />
<glyph unicode="&#xc0;" horiz-adv-x="1327" d="M72 0l481 1380h229l473 -1380h-178l-121 362h-583l-123 -362h-178zM330 1808h194l201 -319h-141zM420 504h489l-241 743q-29 -104 -248 -743z" />
<glyph unicode="&#xc1;" horiz-adv-x="1327" d="M72 0l481 1380h229l473 -1380h-178l-121 362h-583l-123 -362h-178zM420 504h489l-241 743q-29 -104 -248 -743zM612 1489l203 319h193l-254 -319h-142z" />
<glyph unicode="&#xc2;" horiz-adv-x="1327" d="M72 0l481 1380h229l473 -1380h-178l-121 362h-583l-123 -362h-178zM332 1489l260 319h156l260 -319h-164l-174 215l-174 -215h-164zM420 504h489l-241 743q-29 -104 -248 -743z" />
<glyph unicode="&#xc3;" horiz-adv-x="1327" d="M72 0l481 1380h229l473 -1380h-178l-121 362h-583l-123 -362h-178zM322 1618q29 61 85 103t119.5 42t151.5 -45t125 -45q70 0 110 88l101 -69q-66 -142 -203 -142q-55 0 -142 45t-120 45q-84 0 -139 -98zM420 504h489l-241 743q-29 -104 -248 -743z" />
<glyph unicode="&#xc4;" horiz-adv-x="1327" d="M72 0l481 1380h229l473 -1380h-178l-121 362h-583l-123 -362h-178zM358 1651q0 45 31 74.5t76 29.5t74.5 -29.5t29.5 -74.5t-29.5 -76t-74.5 -31t-76 31t-31 76zM420 504h489l-241 743q-29 -104 -248 -743zM772 1651q0 45 29.5 74.5t75 29.5t76 -29.5t30.5 -74.5 t-30.5 -76t-76 -31t-75 31t-29.5 76z" />
<glyph unicode="&#xc5;" horiz-adv-x="1327" d="M72 0l481 1380h229l473 -1380h-178l-121 362h-583l-123 -362h-178zM420 504h489l-241 743q-29 -104 -248 -743zM453 1685.5q0 90.5 63.5 155t153.5 64.5t153.5 -64.5t63.5 -155t-63.5 -154t-153.5 -63.5t-153.5 63.5t-63.5 154zM561 1688.5q0 -46.5 32 -79t77 -32.5 t77.5 32.5t32.5 78t-31.5 78t-77.5 32.5t-78 -31.5t-32 -78z" />
<glyph unicode="&#xc6;" horiz-adv-x="1800" d="M47 0l784 1380h859v-145h-592v-473h524v-146h-524v-471h604v-145h-768v362h-500l-209 -362h-178zM516 504h418v745q-133 -252 -418 -745z" />
<glyph unicode="&#xc7;" horiz-adv-x="1232" d="M98 687.5q0 320.5 198 516t497 195.5q215 0 350 -74v-170q-90 47 -161.5 67.5t-188.5 20.5q-223 0 -372 -151.5t-149 -400.5t147.5 -400.5t391.5 -151.5q197 0 336 105v-174q-127 -86 -348 -86q-311 0 -506 191.5t-195 512zM557 -397q172 12 172 145q0 70 -47 148h145 q37 -51 37 -153.5t-78.5 -178.5t-228.5 -80v119z" />
<glyph unicode="&#xc8;" horiz-adv-x="1026" d="M158 0v1380h760v-145h-594v-473h524v-146h-524v-471h604v-145h-770zM260 1806h195l200 -319h-141z" />
<glyph unicode="&#xc9;" horiz-adv-x="1026" d="M158 0v1380h760v-145h-594v-473h524v-146h-524v-471h604v-145h-770zM500 1489l202 319h193l-254 -319h-141z" />
<glyph unicode="&#xca;" horiz-adv-x="1026" d="M158 0v1380h760v-145h-594v-473h524v-146h-524v-471h604v-145h-770zM221 1489l260 319h156l260 -319h-164l-174 215l-174 -215h-164z" />
<glyph unicode="&#xcb;" horiz-adv-x="1026" d="M158 0v1380h760v-145h-594v-473h524v-146h-524v-471h604v-145h-770zM238 1649q0 45 30.5 74.5t75.5 29.5t75 -29.5t30 -74.5t-30 -76t-75 -31t-75.5 31t-30.5 76zM651 1649q0 45 30 74.5t75 29.5t75.5 -29.5t30.5 -74.5t-30.5 -76t-75.5 -31t-75 31t-30 76z" />
<glyph unicode="&#xcc;" horiz-adv-x="505" d="M-82 1808h195l200 -319h-141zM170 0v1380h166v-1380h-166z" />
<glyph unicode="&#xcd;" horiz-adv-x="505" d="M170 0v1380h166v-1380h-166zM190 1489l203 319h193l-254 -319h-142z" />
<glyph unicode="&#xce;" horiz-adv-x="505" d="M-84 1489l260 319h156l260 -319h-164l-174 215l-174 -215h-164zM170 0v1380h166v-1380h-166z" />
<glyph unicode="&#xcf;" horiz-adv-x="505" d="M-55 1651q0 45 30.5 74.5t75.5 29.5t75 -29.5t30 -74.5t-30 -76t-75 -31t-75.5 31t-30.5 76zM170 0v1380h166v-1380h-166zM358 1651q0 45 30 74.5t75 29.5t75.5 -29.5t30.5 -74.5t-30.5 -76t-75.5 -31t-75 31t-30 76z" />
<glyph unicode="&#xd0;" horiz-adv-x="1495" d="M125 623v139h174v618h410q307 0 501.5 -189.5t194.5 -489.5t-181.5 -500.5t-506.5 -200.5h-418v623h-174zM467 145h250q131 0 232.5 45.5t160.5 124.5q123 158 123 384.5t-145.5 380t-380.5 153.5h-240v-471h358v-139h-358v-478z" />
<glyph unicode="&#xd1;" horiz-adv-x="1378" d="M158 0v1380h209l346 -581l350 -598q-8 199 -8 596v583h166v-1380h-209q-573 956 -699 1182q10 -213 11 -600v-582h-166zM360 1618q29 61 85.5 103t120 42t151.5 -45t125 -45q70 0 110 88l101 -69q-66 -142 -203 -142q-55 0 -142 45t-120 45q-84 0 -139 -98z" />
<glyph unicode="&#xd2;" horiz-adv-x="1433" d="M98 697.5q0 324.5 167 517t455 192.5t452.5 -191.5t164.5 -518t-166.5 -520t-449.5 -193.5t-453 194.5t-170 519zM272 697q0 -257 122 -406.5t329 -149.5t322.5 147.5t115.5 407.5t-116.5 407.5t-326.5 147.5t-328 -148.5t-118 -405.5zM410 1808h194l201 -319h-141z" />
<glyph unicode="&#xd3;" horiz-adv-x="1433" d="M98 697.5q0 324.5 167 517t455 192.5t452.5 -191.5t164.5 -518t-166.5 -520t-449.5 -193.5t-453 194.5t-170 519zM272 697q0 -257 122 -406.5t329 -149.5t322.5 147.5t115.5 407.5t-116.5 407.5t-326.5 147.5t-328 -148.5t-118 -405.5zM664 1489l202 319h193l-254 -319 h-141z" />
<glyph unicode="&#xd4;" horiz-adv-x="1433" d="M98 697.5q0 324.5 167 517t455 192.5t452.5 -191.5t164.5 -518t-166.5 -520t-449.5 -193.5t-453 194.5t-170 519zM272 697q0 -257 122 -406.5t329 -149.5t322.5 147.5t115.5 407.5t-116.5 407.5t-326.5 147.5t-328 -148.5t-118 -405.5zM393 1489l260 319h156l260 -319 h-164l-174 215l-174 -215h-164z" />
<glyph unicode="&#xd5;" horiz-adv-x="1433" d="M98 697.5q0 324.5 167 517t455 192.5t452.5 -191.5t164.5 -518t-166.5 -520t-449.5 -193.5t-453 194.5t-170 519zM272 697q0 -257 122 -406.5t329 -149.5t322.5 147.5t115.5 407.5t-116.5 407.5t-326.5 147.5t-328 -148.5t-118 -405.5zM375 1620q29 61 85 103t119.5 42 t151.5 -45t125 -45q70 0 111 88l100 -69q-66 -142 -203 -142q-55 0 -142 45t-120 45q-84 0 -139 -98z" />
<glyph unicode="&#xd6;" horiz-adv-x="1433" d="M98 697.5q0 324.5 167 517t455 192.5t452.5 -191.5t164.5 -518t-166.5 -520t-449.5 -193.5t-453 194.5t-170 519zM272 697q0 -257 122 -406.5t329 -149.5t322.5 147.5t115.5 407.5t-116.5 407.5t-326.5 147.5t-328 -148.5t-118 -405.5zM414 1651q0 45 30.5 74.5 t75.5 29.5t75 -29.5t30 -74.5t-30 -76t-75 -31t-75.5 31t-30.5 76zM827 1651q0 45 30 74.5t75 29.5t75.5 -29.5t30.5 -74.5t-30.5 -76t-75.5 -31t-75 31t-30 76z" />
<glyph unicode="&#xd7;" horiz-adv-x="1005" d="M121 973l104 102l277 -272l276 274l105 -104l-277 -275l271 -268l-105 -104l-270 268l-269 -268l-104 106l268 266z" />
<glyph unicode="&#xd8;" horiz-adv-x="1382" d="M84 -18l158 211q-158 197 -158 513t167 508.5t451 192.5q215 0 363 -107l80 107h180l-154 -207q152 -190 152 -509.5t-167 -513t-449 -193.5q-211 0 -363 110l-84 -112h-176zM256 717.5q0 -238.5 90 -383.5l623 835q-107 84 -267 84q-209 0 -327.5 -148.5t-118.5 -387z M442 225q111 -88 265 -88q211 0 327.5 148.5t116.5 391.5t-86 384z" />
<glyph unicode="&#xd9;" horiz-adv-x="1320" d="M156 508v872h166v-870q0 -190 91 -280.5t244 -90.5q342 0 342 381v860h166v-856q0 -266 -134 -403t-371.5 -137t-370.5 134t-133 390zM342 1808h195l200 -319h-141z" />
<glyph unicode="&#xda;" horiz-adv-x="1320" d="M156 508v872h166v-870q0 -190 91 -280.5t244 -90.5q342 0 342 381v860h166v-856q0 -266 -134 -403t-371.5 -137t-370.5 134t-133 390zM614 1489l203 319h193l-254 -319h-142z" />
<glyph unicode="&#xdb;" horiz-adv-x="1320" d="M156 508v872h166v-870q0 -190 91 -280.5t244 -90.5q342 0 342 381v860h166v-856q0 -266 -134 -403t-371.5 -137t-370.5 134t-133 390zM326 1489l260 319h155l260 -319h-163l-174 215l-175 -215h-163z" />
<glyph unicode="&#xdc;" horiz-adv-x="1320" d="M156 508v872h166v-870q0 -190 91 -280.5t244 -90.5q342 0 342 381v860h166v-856q0 -266 -134 -403t-371.5 -137t-370.5 134t-133 390zM350 1651q0 45 31 74.5t76 29.5t74.5 -29.5t29.5 -74.5t-29.5 -76t-74.5 -31t-76 31t-31 76zM764 1651q0 45 29.5 74.5t74.5 29.5 t76 -29.5t31 -74.5t-31 -76t-76 -31t-74.5 31t-29.5 76z" />
<glyph unicode="&#xdd;" horiz-adv-x="1214" d="M53 1380h193q322 -623 358 -716q10 31 365 716h192l-473 -866v-514h-166v512zM571 1487l203 319h193l-254 -319h-142z" />
<glyph unicode="&#xde;" horiz-adv-x="1097" d="M158 0v1380h166v-254h180q250 0 383 -121.5t133 -316t-132 -314.5t-368 -120h-196v-254h-166zM324 395h202q162 0 244 79t82 212t-84 216t-258 83h-186v-590z" />
<glyph unicode="&#xdf;" horiz-adv-x="1107" d="M156 0v1016q0 197 107.5 297t278.5 100t270 -92t99 -223q0 -90 -40 -159t-78.5 -117t-38.5 -87t30.5 -74.5t73.5 -69.5t86 -74t74 -101.5t31 -134.5q0 -129 -91.5 -212t-252.5 -83q-113 0 -177 26v156q80 -41 170 -41t140.5 40t50.5 98.5t-32 103.5t-77 80.5t-90 72.5 q-109 88 -108 199q0 55 25.5 106.5t57 83t57.5 80.5t26 113.5t-55.5 112t-145.5 47.5q-229 0 -230 -244v-1020h-161z" />
<glyph unicode="&#xe0;" horiz-adv-x="1007" d="M96 302q0 140 114 223t310 83h189v54q0 123 -55.5 185t-204 62t-277.5 -88v162q117 72 307 72q391 0 391 -398v-657h-159v123q-80 -133 -291 -133q-145 0 -234.5 86t-89.5 226zM201 1466h194l201 -319h-141zM266 299q0 -78 51.5 -126t156 -48t170 62.5t65.5 158.5v133 h-181q-131 0 -196.5 -51t-65.5 -129z" />
<glyph unicode="&#xe1;" horiz-adv-x="1007" d="M96 302q0 140 114 223t310 83h189v54q0 123 -55.5 185t-204 62t-277.5 -88v162q117 72 307 72q391 0 391 -398v-657h-159v123q-80 -133 -291 -133q-145 0 -234.5 86t-89.5 226zM266 299q0 -78 51.5 -126t156 -48t170 62.5t65.5 158.5v133h-181q-131 0 -196.5 -51 t-65.5 -129zM457 1147l202 319h193l-254 -319h-141z" />
<glyph unicode="&#xe2;" horiz-adv-x="1007" d="M96 302q0 140 114 223t310 83h189v54q0 123 -55.5 185t-204 62t-277.5 -88v162q117 72 307 72q391 0 391 -398v-657h-159v123q-80 -133 -291 -133q-145 0 -234.5 86t-89.5 226zM182 1145l260 319h156l260 -319h-164l-174 215l-174 -215h-164zM266 299q0 -78 51.5 -126 t156 -48t170 62.5t65.5 158.5v133h-181q-131 0 -196.5 -51t-65.5 -129z" />
<glyph unicode="&#xe3;" horiz-adv-x="1007" d="M96 302q0 140 114 223t310 83h189v54q0 123 -55.5 185t-204 62t-277.5 -88v162q117 72 307 72q391 0 391 -398v-657h-159v123q-80 -133 -291 -133q-145 0 -234.5 86t-89.5 226zM166 1276q29 61 85 103t119.5 42t151.5 -45t125 -45q70 0 111 88l100 -69 q-66 -142 -203 -142q-55 0 -142 45t-120 45q-84 0 -139 -98zM266 299q0 -78 51.5 -126t156 -48t170 62.5t65.5 158.5v133h-181q-131 0 -196.5 -51t-65.5 -129z" />
<glyph unicode="&#xe4;" horiz-adv-x="1007" d="M96 302q0 140 114 223t310 83h189v54q0 123 -55.5 185t-204 62t-277.5 -88v162q117 72 307 72q391 0 391 -398v-657h-159v123q-80 -133 -291 -133q-145 0 -234.5 86t-89.5 226zM205 1302.5q0 45.5 30.5 75t75.5 29.5t75 -29.5t30 -75t-30 -76t-75 -30.5t-75.5 30.5 t-30.5 76zM266 299q0 -78 51.5 -126t156 -48t170 62.5t65.5 158.5v133h-181q-131 0 -196.5 -51t-65.5 -129zM618 1302.5q0 45.5 30 75t75 29.5t75.5 -29.5t30.5 -75t-30.5 -76t-75.5 -30.5t-75 30.5t-30 76z" />
<glyph unicode="&#xe5;" horiz-adv-x="1007" d="M96 302q0 140 114 223t310 83h189v54q0 123 -55.5 185t-204 62t-277.5 -88v162q117 72 307 72q391 0 391 -398v-657h-159v123q-80 -133 -291 -133q-145 0 -234.5 86t-89.5 226zM266 299q0 -78 51.5 -126t156 -48t170 62.5t65.5 158.5v133h-181q-131 0 -196.5 -51 t-65.5 -129zM305 1343.5q0 90.5 63.5 155t153.5 64.5t153.5 -64.5t63.5 -155t-63.5 -154t-153.5 -63.5t-153.5 63.5t-63.5 154zM414 1346.5q0 -46.5 31.5 -79t76.5 -32.5t78 32.5t33 79t-32 78t-78 31.5t-77.5 -31.5t-31.5 -78z" />
<glyph unicode="&#xe6;" horiz-adv-x="1677" d="M106 297q0 145 115 229t314 84h184v52q0 123 -55.5 185t-203 62t-278.5 -86v158q119 74 301 74q264 0 338 -185q121 180 359 181q201 0 308 -126t107 -362q0 -57 -10 -112h-704q18 -154 118.5 -236t259 -82t263.5 72v-152q-117 -63 -268.5 -63t-266.5 57t-176 156 q-39 -94 -135 -153.5t-240.5 -59.5t-237 81t-92.5 226zM274 297q0 -76 52.5 -121t153 -45t170 63.5t69.5 167.5v113h-154q-291 0 -291 -178zM879 586h557v41q-2 135 -73 208.5t-185.5 73.5t-197.5 -82t-101 -241z" />
<glyph unicode="&#xe7;" horiz-adv-x="964" d="M88 514q0 223 144.5 383t394.5 160q133 0 237 -58v-153q-94 63 -221 63q-176 0 -281.5 -113.5t-104.5 -281.5t101.5 -279.5t284.5 -111.5q119 0 221 67v-153q-98 -59 -241 -60q-246 0 -390.5 157t-144.5 380zM387 -397q172 12 172 145q0 70 -47 148h145q37 -51 37 -153.5 t-78.5 -178.5t-228.5 -80v119z" />
<glyph unicode="&#xe8;" horiz-adv-x="1069" d="M88 521.5q0 242.5 129 386t327.5 143.5t313.5 -125t115 -355q0 -66 -10 -120h-709q18 -154 116.5 -236t265.5 -82t271 72v-152q-121 -63 -295 -63q-236 0 -380 144.5t-144 387zM254 586h557v41q0 129 -69.5 205.5t-189.5 76.5t-202 -84t-96 -239zM256 1466h195l200 -319 h-141z" />
<glyph unicode="&#xe9;" horiz-adv-x="1069" d="M88 521.5q0 242.5 129 386t327.5 143.5t313.5 -125t115 -355q0 -66 -10 -120h-709q18 -154 116.5 -236t265.5 -82t271 72v-152q-121 -63 -295 -63q-236 0 -380 144.5t-144 387zM254 586h557v41q0 129 -69.5 205.5t-189.5 76.5t-202 -84t-96 -239zM514 1147l203 319h192 l-254 -319h-141z" />
<glyph unicode="&#xea;" horiz-adv-x="1069" d="M88 521.5q0 242.5 129 386t327.5 143.5t313.5 -125t115 -355q0 -66 -10 -120h-709q18 -154 116.5 -236t265.5 -82t271 72v-152q-121 -63 -295 -63q-236 0 -380 144.5t-144 387zM238 1147l260 319h155l260 -319h-163l-175 215l-174 -215h-163zM254 586h557v41 q0 129 -69.5 205.5t-189.5 76.5t-202 -84t-96 -239z" />
<glyph unicode="&#xeb;" horiz-adv-x="1069" d="M88 521.5q0 242.5 129 386t327.5 143.5t313.5 -125t115 -355q0 -66 -10 -120h-709q18 -154 116.5 -236t265.5 -82t271 72v-152q-121 -63 -295 -63q-236 0 -380 144.5t-144 387zM254 586h557v41q0 129 -69.5 205.5t-189.5 76.5t-202 -84t-96 -239zM264 1309q0 45 31 74.5 t76 29.5t74.5 -29.5t29.5 -74.5t-29.5 -76t-74.5 -31t-76 31t-31 76zM678 1309q0 45 29.5 74.5t74.5 29.5t76 -29.5t31 -74.5t-31 -76t-76 -31t-74.5 31t-29.5 76z" />
<glyph unicode="&#xec;" horiz-adv-x="477" d="M-98 1464h194l201 -319h-141zM158 0v1038h161v-1038h-161z" />
<glyph unicode="&#xed;" horiz-adv-x="477" d="M158 0v1038h161v-1038h-161zM180 1147l203 319h192l-253 -319h-142z" />
<glyph unicode="&#xee;" horiz-adv-x="477" d="M-98 1147l260 319h155l261 -319h-164l-174 215l-174 -215h-164zM158 0v1038h161v-1038h-161z" />
<glyph unicode="&#xef;" horiz-adv-x="477" d="M-74 1311q0 45 31 74.5t76 29.5t74.5 -29.5t29.5 -74.5t-29.5 -76t-74.5 -31t-76 31t-31 76zM158 0v1038h161v-1038h-161zM340 1311q0 45 29.5 74.5t74.5 29.5t76 -29.5t31 -74.5t-31 -76t-76 -31t-74.5 31t-29.5 76z" />
<glyph unicode="&#xf0;" horiz-adv-x="1058" d="M78 423q0 187 120.5 300t300 113t300.5 -140q-37 217 -183 402l-286 -148v125l209 107q-121 121 -271 198h254q82 -53 154 -127l250 127v-125l-174 -90q213 -274 213 -614q0 -279 -121 -424t-323 -145t-322.5 127t-120.5 314zM246 412q0 -129 75.5 -205t196.5 -76 t204 95.5t89 297.5q-123 162 -309 162q-111 0 -183.5 -72.5t-72.5 -201.5z" />
<glyph unicode="&#xf1;" d="M150 0v1038h159v-180q92 195 328 195q152 0 242 -92.5t90 -245.5v-715h-162v672q0 115 -58.5 175t-164 60t-190.5 -90t-85 -250v-567h-159zM227 1276q29 61 85.5 103t120 42t151.5 -45t125 -45q70 0 110 88l101 -69q-66 -142 -203 -142q-55 0 -142.5 45t-119.5 45 q-84 0 -140 -98z" />
<glyph unicode="&#xf2;" horiz-adv-x="1150" d="M88 513q0 230 134 385t359.5 155t353.5 -151.5t128 -384t-131 -384t-357.5 -151.5t-356.5 150.5t-130 380.5zM256 516q0 -164 86 -277.5t235.5 -113.5t233.5 111.5t84 280.5t-80 280.5t-235.5 111.5t-239.5 -114.5t-84 -278.5zM256 1466h195l200 -319h-141z" />
<glyph unicode="&#xf3;" horiz-adv-x="1150" d="M88 513q0 230 134 385t359.5 155t353.5 -151.5t128 -384t-131 -384t-357.5 -151.5t-356.5 150.5t-130 380.5zM256 516q0 -164 86 -277.5t235.5 -113.5t233.5 111.5t84 280.5t-80 280.5t-235.5 111.5t-239.5 -114.5t-84 -278.5zM528 1147l203 319h193l-254 -319h-142z" />
<glyph unicode="&#xf4;" horiz-adv-x="1150" d="M88 513q0 230 134 385t359.5 155t353.5 -151.5t128 -384t-131 -384t-357.5 -151.5t-356.5 150.5t-130 380.5zM244 1145l260 319h155l261 -319h-164l-174 215l-174 -215h-164zM256 516q0 -164 86 -277.5t235.5 -113.5t233.5 111.5t84 280.5t-80 280.5t-235.5 111.5 t-239.5 -114.5t-84 -278.5z" />
<glyph unicode="&#xf5;" horiz-adv-x="1150" d="M88 513q0 230 134 385t359.5 155t353.5 -151.5t128 -384t-131 -384t-357.5 -151.5t-356.5 150.5t-130 380.5zM236 1276q29 61 85 103t119.5 42t151.5 -45t125 -45q70 0 110 88l101 -69q-66 -142 -203 -142q-55 0 -142 45t-120 45q-84 0 -139 -98zM256 516 q0 -164 86 -277.5t235.5 -113.5t233.5 111.5t84 280.5t-80 280.5t-235.5 111.5t-239.5 -114.5t-84 -278.5z" />
<glyph unicode="&#xf6;" horiz-adv-x="1150" d="M88 513q0 230 134 385t359.5 155t353.5 -151.5t128 -384t-131 -384t-357.5 -151.5t-356.5 150.5t-130 380.5zM256 516q0 -164 86 -277.5t235.5 -113.5t233.5 111.5t84 280.5t-80 280.5t-235.5 111.5t-239.5 -114.5t-84 -278.5zM281 1305q0 45 30.5 74.5t75.5 29.5 t75 -29.5t30 -74.5t-30 -76t-75 -31t-75.5 31t-30.5 76zM694 1305q0 45 30 74.5t75 29.5t75.5 -29.5t30.5 -74.5t-30.5 -76t-75.5 -31t-75 31t-30 76z" />
<glyph unicode="&#xf7;" horiz-adv-x="1132" d="M117 623v147h901v-147h-901zM457 331q0 44 31.5 75.5t75.5 31.5t76 -31.5t32 -75.5t-32 -76t-76 -32t-75.5 32t-31.5 76zM457 1062q0 44 31.5 75.5t75.5 31.5t76 -31.5t32 -75.5t-32 -76t-76 -32t-75.5 32t-31.5 76z" />
<glyph unicode="&#xf8;" horiz-adv-x="1153" d="M115 -18l121 161q-121 145 -121 371.5t135 382.5t350 156q154 0 268 -72l54 72h170l-121 -160q121 -150 121 -379t-131.5 -380.5t-360.5 -151.5q-147 0 -262 71l-55 -71h-168zM272 529.5q0 -156.5 62 -257.5l450 598q-77 52 -186 52q-154 0 -240 -118t-86 -274.5z M424 168q78 -55 176 -55q162 0 248 114.5t86 274.5t-57 266z" />
<glyph unicode="&#xf9;" d="M137 324v714h162v-673q0 -113 57.5 -172.5t171 -59.5t190.5 90t77 244v571h161v-1038h-161v180q-82 -193 -326 -192q-154 0 -243 91t-89 245zM227 1464h195l201 -319h-142z" />
<glyph unicode="&#xfa;" d="M137 324v714h162v-673q0 -113 57.5 -172.5t171 -59.5t190.5 90t77 244v571h161v-1038h-161v180q-82 -193 -326 -192q-154 0 -243 91t-89 245zM492 1147l202 319h193l-254 -319h-141z" />
<glyph unicode="&#xfb;" d="M137 324v714h162v-673q0 -113 57.5 -172.5t171 -59.5t190.5 90t77 244v571h161v-1038h-161v180q-82 -193 -326 -192q-154 0 -243 91t-89 245zM213 1147l260 319h156l260 -319h-164l-174 215l-174 -215h-164z" />
<glyph unicode="&#xfc;" d="M137 324v714h162v-673q0 -113 57.5 -172.5t171 -59.5t190.5 90t77 244v571h161v-1038h-161v180q-82 -193 -326 -192q-154 0 -243 91t-89 245zM242 1305q0 45 30.5 74.5t75.5 29.5t75 -29.5t30 -74.5t-30 -76t-75 -31t-75.5 31t-30.5 76zM655 1305q0 45 30 74.5t75 29.5 t75.5 -29.5t30.5 -74.5t-30.5 -76t-75.5 -31t-75 31t-30 76z" />
<glyph unicode="&#xfd;" horiz-adv-x="1009" d="M16 1038h183l317 -813q16 57 285 813h174l-375 -1011q-80 -211 -189.5 -297t-250.5 -86q-53 0 -86 10v145q31 -8 69 -8q207 0 293 236zM455 1147l202 319h193l-254 -319h-141z" />
<glyph unicode="&#xfe;" horiz-adv-x="1161" d="M150 -403v1851h159v-567q109 174 319 174t327.5 -150.5t117.5 -383t-124 -385t-325.5 -152.5t-314.5 174v-561h-159zM309 522q0 -203 92.5 -297t214 -94t205.5 103.5t84 283.5t-82 284.5t-206.5 104.5t-216 -91t-91.5 -294z" />
<glyph unicode="&#xff;" horiz-adv-x="1009" d="M16 1038h183l317 -813q16 57 285 813h174l-375 -1011q-80 -211 -189.5 -297t-250.5 -86q-53 0 -86 10v145q31 -8 69 -8q207 0 293 236zM211 1305q0 45 30.5 74.5t75.5 29.5t75 -29.5t30 -74.5t-30 -76t-75 -31t-75.5 31t-30.5 76zM625 1305q0 45 29.5 74.5t74.5 29.5 t76 -29.5t31 -74.5t-31 -76t-76 -31t-74.5 31t-29.5 76z" />
<glyph unicode="&#x152;" horiz-adv-x="2013" d="M98 696.5q0 325.5 163 518t443.5 192.5t440.5 -195v168h760v-145h-598v-473h528v-146h-528v-471h608v-145h-770v180q-162 -197 -438.5 -196.5t-442.5 194t-166 519zM272 697q0 -259 118 -407.5t323 -148.5t318.5 147.5t113.5 407.5t-113.5 407.5t-322.5 147.5 t-323 -147.5t-114 -406.5z" />
<glyph unicode="&#x153;" horiz-adv-x="1826" d="M88 513q0 232 127 386t340 154q266 0 387 -209q129 207 381 207q201 0 309.5 -126t108.5 -362q0 -57 -10 -112h-707q18 -154 118.5 -236t260.5 -82t264 72v-152q-121 -63 -291 -63q-285 0 -430 213q-121 -221 -391 -221q-221 0 -344 149.5t-123 381.5zM256 517 q0 -167 79 -279.5t226.5 -112.5t222 109.5t74.5 279.5q0 395 -303 395q-147 0 -223 -112.5t-76 -279.5zM1024 586h555v45q-2 135 -71.5 206.5t-184.5 71.5t-199 -82t-100 -241z" />
<glyph unicode="&#x178;" horiz-adv-x="1214" d="M53 1380h193q322 -623 358 -716q10 31 365 716h192l-473 -866v-514h-166v512zM297 1649q0 45 30.5 74.5t76 29.5t75 -29.5t29.5 -74.5t-29.5 -76t-75 -31t-76 31t-30.5 76zM711 1649q0 45 29.5 74.5t74.5 29.5t76 -29.5t31 -74.5t-31 -76t-76 -31t-74.5 31t-29.5 76z" />
<glyph unicode="&#x2c6;" horiz-adv-x="862" d="M92 1315l260 319h156l260 -319h-164l-174 215l-174 -215h-164z" />
<glyph unicode="&#x2dc;" horiz-adv-x="862" d="M102 1415q29 61 85.5 103.5t120 42.5t151.5 -45.5t125 -45.5q70 0 110 89l101 -70q-66 -141 -203 -141q-55 0 -142.5 45t-119.5 45q-84 0 -140 -99z" />
<glyph unicode="&#x2000;" horiz-adv-x="952" />
<glyph unicode="&#x2001;" horiz-adv-x="1905" />
<glyph unicode="&#x2002;" horiz-adv-x="952" />
<glyph unicode="&#x2003;" horiz-adv-x="1905" />
<glyph unicode="&#x2004;" horiz-adv-x="635" />
<glyph unicode="&#x2005;" horiz-adv-x="476" />
<glyph unicode="&#x2006;" horiz-adv-x="317" />
<glyph unicode="&#x2007;" horiz-adv-x="317" />
<glyph unicode="&#x2008;" horiz-adv-x="238" />
<glyph unicode="&#x2009;" horiz-adv-x="381" />
<glyph unicode="&#x200a;" horiz-adv-x="105" />
<glyph unicode="&#x2010;" horiz-adv-x="712" d="M117 479v142h479v-142h-479z" />
<glyph unicode="&#x2011;" horiz-adv-x="712" d="M117 479v142h479v-142h-479z" />
<glyph unicode="&#x2012;" horiz-adv-x="712" d="M117 479v142h479v-142h-479z" />
<glyph unicode="&#x2013;" d="M117 485v136h872v-136h-872z" />
<glyph unicode="&#x2014;" horiz-adv-x="1685" d="M117 489v136h1452v-136h-1452z" />
<glyph unicode="&#x2018;" horiz-adv-x="368" d="M23 965l245 458h127l-172 -458h-200z" />
<glyph unicode="&#x2019;" horiz-adv-x="370" d="M25 965l172 458h200l-245 -458h-127z" />
<glyph unicode="&#x201a;" horiz-adv-x="370" d="M4 -252l170 459h201l-244 -459h-127z" />
<glyph unicode="&#x201c;" horiz-adv-x="663" d="M25 965l245 458h125l-172 -458h-198zM326 965l239 458h125l-170 -458h-194z" />
<glyph unicode="&#x201d;" horiz-adv-x="661" d="M25 965l170 458h192l-237 -458h-125zM317 965l175 458h198l-248 -458h-125z" />
<glyph unicode="&#x201e;" horiz-adv-x="661" d="M6 -252l168 459h195l-238 -459h-125zM299 -252l172 459h199l-246 -459h-125z" />
<glyph unicode="&#x2022;" horiz-adv-x="919" d="M188 729q0 117 77 194.5t192.5 77.5t194.5 -78.5t79 -193.5t-78 -193.5t-193.5 -78.5t-193.5 77.5t-78 194.5z" />
<glyph unicode="&#x2026;" horiz-adv-x="1474" d="M74 104.5q0 51.5 34.5 86t86 34.5t86 -34.5t34.5 -86t-34.5 -86t-86 -34.5t-86 34.5t-34.5 86zM616 104.5q0 51.5 35 86t86 34.5t86 -34.5t35 -86t-35 -86t-86 -34.5t-86 34.5t-35 86zM1159 104.5q0 51.5 35 86t86 34.5t86 -34.5t35 -86t-35 -86t-86 -34.5t-86 34.5 t-35 86z" />
<glyph unicode="&#x202f;" horiz-adv-x="381" />
<glyph unicode="&#x2039;" horiz-adv-x="612" d="M59 518l310 332h178l-301 -332l301 -332h-178z" />
<glyph unicode="&#x203a;" horiz-adv-x="608" d="M66 186l301 332l-301 332h180l307 -332l-307 -332h-180z" />
<glyph unicode="&#x205f;" horiz-adv-x="476" />
<glyph unicode="&#x20ac;" horiz-adv-x="1208" d="M106 453v116h189q-4 61 -4 106.5t6 100.5h-191v117h211q55 217 207 338t357 121q158 0 245 -47v-160q-82 51 -227 51t-251.5 -79t-153.5 -224h407v-117h-434q-6 -51 -6 -106.5t6 -100.5h434v-116h-412q45 -152 153 -234t251 -82t233 56v-160q-92 -49 -275 -49t-333.5 126 t-202.5 343h-209z" />
<glyph unicode="&#x2122;" horiz-adv-x="1421" d="M4 1270v110h475v-110h-174v-594h-123v594h-178zM545 678l55 702h160l117 -331l69 -218q45 137 201 549h162l51 -702h-123l-20 317l-9 238q-29 -90 -198 -541h-125l-187 541q0 -27 -30 -555h-123z" />
<glyph unicode="&#x25fc;" horiz-adv-x="1044" d="M0 0v1044h1044v-1044h-1044z" />
<glyph unicode="&#xfb01;" horiz-adv-x="1052" d="M61 907v131h179v97q0 152 81.5 239.5t229 87.5t287.5 -69v-150q-143 74 -279 74q-158 0 -158 -184v-95h510v-1038h-161v907h-349v-907h-161v907h-179z" />
<glyph unicode="&#xfb02;" horiz-adv-x="1044" d="M61 907v131h179v97q0 152 80.5 239.5t242.5 87.5t332 -100v-1362h-160v1284q-86 33 -166 33q-168 0 -168 -184v-95h230v-131h-230v-907h-161v907h-179z" />
<glyph unicode="&#xfb03;" horiz-adv-x="1607" d="M61 907v131h179v97q0 152 83 239.5t232.5 87.5t292.5 -71q82 72 219 71.5t281 -69.5v-150q-143 74 -279 74q-158 0 -158 -184v-95h510v-1038h-161v907h-349v-907h-161v907h-349v-907h-161v907h-179zM401 1038h349v97q0 70 20 137q-96 45 -203 45q-166 0 -166 -184v-95z " />
<glyph unicode="&#xfb04;" horiz-adv-x="1556" d="M61 907v131h179v97q0 152 83 239.5t232.5 87.5t292.5 -71q84 72 234.5 71.5t324.5 -100.5v-1362h-162v1284q-86 33 -164 33q-168 0 -168 -184v-95h228v-131h-228v-907h-161v907h-351v-907h-161v907h-179zM401 1038h351v97q0 78 20 137q-100 45 -205 45q-166 0 -166 -184 v-95z" />
</font>
</defs>
</svg>
