<?xml version="1.0" standalone="no"?>
<!DOCTYPE svg PUBLIC "-//W3C//DTD SVG 1.1//EN" "http://www.w3.org/Graphics/SVG/1.1/DTD/svg11.dtd">
<svg xmlns="http://www.w3.org/2000/svg">
<defs >
<font id="MerriweatherSans" horiz-adv-x="1198" ><font-face
    font-family="Merriweather Sans"
    units-per-em="2000"
    panose-1="0 0 0 0 0 0 0 0 0 0"
    ascent="1968"
    descent="-546"
    alphabetic="0" />
<glyph unicode=" " horiz-adv-x="358" />
<glyph unicode="!" horiz-adv-x="629" d="M191 545L149 1738H487L453 545H191ZM306 -22Q229 -22 179 31T127 162Q126 217 152 263T224 337T322 365Q406 365 453 312T501 182Q501 127 475 81T405 6T306 -22Z" />
<glyph unicode="&quot;" horiz-adv-x="1235" d="M254 915L217 1656H509L473 915H254ZM763 915L726 1656H1018L982 915H763Z" />
<glyph unicode="#" horiz-adv-x="1521" d="M301 0L427 1340H680L551 0H301ZM829 0L953 1340H1204L1076 0H829ZM1373 834H186V1034H1373V834ZM1329 317H149V524H1329V317Z" />
<glyph unicode="$" horiz-adv-x="1363" d="M608 1439L616 1721H799L791 1439H608ZM556 -224L565 56H748L741 -224H556ZM658 -16Q556 -16 464 -1T305 35T210 73L257 321Q294 299 354 278T488 242T635 227Q754 227 812 264T870 383Q870 441 838 480T738 558T560
648Q467 693 385 755T252 903T201 1104Q201 1208 241 1283T353 1407T517 1479T718 1502Q872 1502 970 1473T1109 1419L1056 1181Q1009 1215 926 1242T736 1270Q665 1270 613 1253T531 1204T502 1124Q502 1068 529 1029T617 953T773 869Q860 828 934 784T1064 686T1151
565T1182 409Q1182 275 1119 180T939 34T658 -16Z" />
<glyph unicode="%" horiz-adv-x="2114" d="M474 605Q345 604 260 662T132 820T89 1039Q89 1181 148 1280T303 1430T508 1483Q643 1485 728 1427T854 1268T894 1046Q894 905 835 807T680 658T474 605ZM648 0L1225 1494H1467L889 0H648ZM490 799Q568 799 609 863T650
1038Q650 1151 610 1220T494 1289Q416 1289 375 1225T333 1048Q333 938 374 869T490 799ZM1606 16Q1476 15 1391 74T1263 232T1220 452Q1220 594 1279 692T1433 841T1638 894Q1773 896 1858 838T1984 680T2024 459Q2024 317 1965 219T1811 70T1606 16ZM1621 211Q1699
211 1739 275T1780 451Q1780 564 1740 632T1624 701Q1547 701 1505 638T1463 461Q1463 351 1504 281T1621 211Z" />
<glyph unicode="&amp;" horiz-adv-x="1501" d="M942 255Q949 259 960 270T982 293T995 306Q1038 329 1067 369T1110 458T1125 559Q1125 627 1116 670T1101 734H1351Q1356 713 1363 671T1371 558Q1371 406 1315 308T1167 149Q1163 146 1154 134T1134 110T1119 96Q1049
54 944 19T727 -16Q523 -16 381 31T166 170T92 394Q92 502 145 581T290 717T493 812Q496 813 513 817T548 825T569 831Q651 862 712 905T807 1009T841 1153Q841 1186 826 1222T777 1285T685 1311Q614 1311 568 1268T521 1147Q521 1099 532 1063T568 989T629 905T717
787L749 746Q775 710 819 651T917 527T1023 402T1115 304Q1169 257 1215 228T1313 183T1435 165V0Q1412 -6 1378 -11T1298 -16Q1170 -16 1080 30T912 145Q862 195 803 262T683 401T569 542T478 662L449 695Q403 757 357 825T281 970T251 1139Q251 1314 368 1412T683
1510Q809 1510 901 1462T1043 1334T1093 1155Q1093 1054 1063 980T979 851T854 756T702 679Q697 678 674 672T628 658T599 650Q531 621 481 585T403 505T375 407Q375 348 406 300T508 224T695 195Q781 195 836 212T942 255Z" />
<glyph unicode="&apos;" horiz-adv-x="726" d="M254 915L217 1656H509L473 915H254Z" />
<glyph unicode="(" horiz-adv-x="824" d="M572 -341Q543 -322 489 -273T371 -141T251 61T157 340T120 700Q120 877 155 1025T247 1292T365 1498T484 1639T572 1713L744 1606Q712 1580 654 1510T536 1327T434 1056T389 696Q387 535 411 403T476 166T565 -18T661
-151T744 -234L572 -341Z" />
<glyph unicode=")" horiz-adv-x="824" d="M252 1732Q281 1713 335 1664T453 1532T573 1330T667 1051T704 691Q704 514 669 366T577 99T459 -107T340 -248T252 -322L80 -215Q112 -189 170 -119T288 64T390 335T435 695Q437 856 413 988T348 1225T259 1409T163 1542T80
1625L252 1732Z" />
<glyph unicode="*" horiz-adv-x="1302" d="M540 593L561 885L601 1047L483 924L245 755L128 962L388 1093L548 1139Q544 1141 521 1146T469 1159T416 1172T386 1180L123 1304L232 1512L479 1345L599 1229Q598 1233 592 1255T578 1307T564 1360T556 1390L525 1681H760L740
1394L701 1231Q703 1233 720 1250T758 1289T796 1329T818 1351L1060 1520L1172 1315L913 1188L752 1140L915 1097L1179 979L1060 765L826 930L702 1046Q703 1043 709 1020T723 968T737 916T744 886L775 593H540Z" />
<glyph unicode="+" horiz-adv-x="1365" d="M564 256V460L571 648L412 642H200V871H412L571 864L564 1052V1257H800V1052L793 864L940 871H1165V642H940L793 648L800 460V256H564Z" />
<glyph unicode="," horiz-adv-x="650" d="M162 -398V-374Q201 -349 231 -280T261 -121Q261 -77 244 -34T202 40T152 74V162L362 292Q423 270 461 216T517 96T535 -26Q535 -135 499 -232T403 -398T269 -495L162 -398Z" />
<glyph unicode="-" horiz-adv-x="1190" d="M180 537V771H1010V537H180Z" />
<glyph unicode="." horiz-adv-x="629" d="M307 -22Q230 -22 179 31T127 162Q127 217 153 263T224 337T322 365Q406 365 453 312T501 182Q502 127 476 81T405 6T307 -22Z" />
<glyph unicode="/" horiz-adv-x="941" d="M72 -354L620 1562H869L321 -354H72Z" />
<glyph unicode="0" horiz-adv-x="1391" d="M687 -16Q531 -16 421 48T241 222T139 473T108 767Q111 992 191 1157T407 1413T711 1503Q869 1503 978 1444T1155 1280T1253 1041T1282 753Q1280 521 1204 349T993 80T687 -16ZM695 218Q824 217 891 345T959 743Q959
903 931 1021T845 1204T699 1269Q570 1269 502 1145T433 775Q433 616 461 491T548 292T695 218Z" />
<glyph unicode="1" horiz-adv-x="932" d="M350 0V1162Q293 1148 238 1137T127 1116L99 1300Q147 1313 207 1337T328 1390T439 1448T518 1501L666 1480L665 0H350Z" />
<glyph unicode="2" horiz-adv-x="1225" d="M134 0L91 137Q172 188 263 260T443 419T603 603T718 803T761 1008Q761 1129 701 1191T533 1254Q435 1254 346 1219T205 1132L98 1303Q138 1344 205 1389T370 1467T597 1499Q770 1499 875 1435T1028 1265T1076 1034Q1076
884 1003 740T801 464T508 221L1130 248V0H134Z" />
<glyph unicode="3" horiz-adv-x="1151" d="M132 19L130 221Q178 211 230 204T326 196Q447 196 540 227T685 315T737 450Q737 509 710 558T622 636T459 658L342 631L296 826Q356 837 410 853T505 891Q586 930 627 984T671 1104Q675 1189 619 1230T474 1271Q372
1271 300 1239T175 1169L79 1356Q111 1386 181 1421T342 1480T527 1505Q664 1505 766 1464T924 1346T981 1157Q981 1059 939 982T825 848T664 756V788Q801 786 888 735T1018 603T1060 433Q1060 312 979 209T749 42T399 -21Q317 -21 250 -8T132 19Z" />
<glyph unicode="4" horiz-adv-x="1391" d="M155 294L83 413Q123 497 159 576T229 732T297 884T363 1034T430 1185T501 1341T576 1504H674L878 1390Q842 1323 811 1263T750 1147T693 1035T636 923T575 807T507 680L409 516H1313V294H155ZM799 0V522L829 944H1093V0H799Z" />
<glyph unicode="5" horiz-adv-x="1248" d="M309 -20Q284 -20 244 -17T173 -7V209Q192 208 210 208T246 207Q414 207 537 245T728 353T795 519Q795 632 730 685T518 738Q455 738 383 721T241 680L184 712L243 1486H1065L1037 1233H466L432 923Q495 941 555 950T669
959Q884 959 995 847T1107 533Q1107 415 1053 315T896 139T645 22T309 -20Z" />
<glyph unicode="6" horiz-adv-x="1390" d="M131 587Q131 758 183 904T325 1168T525 1374T753 1514T979 1584L1052 1399Q914 1364 804 1288T618 1109T500 892T457 665Q455 533 478 427T557 258T712 195Q793 195 846 232T926 336T953 485Q953 590 926 651T856 738T763
764Q709 764 674 751T616 727L553 893Q570 912 610 936T710 977T848 995Q973 995 1065 936T1207 774T1257 545Q1257 433 1222 332T1116 153T936 29T682 -16Q517 -16 393 64T200 281T131 587Z" />
<glyph unicode="7" horiz-adv-x="1255" d="M308 0Q348 84 393 185T486 397T581 622T673 843T755 1045T821 1212L128 1214L129 1486H1097L1164 1392L651 0H308Z" />
<glyph unicode="8" horiz-adv-x="1335" d="M680 -16Q560 -16 459 9T282 84T166 208T125 379Q125 457 163 534T288 680T520 796L644 671Q577 644 525 605T443 513T413 395Q413 335 440 285T527 204T680 174Q740 174 792 198T876 267T908 369Q908 431 869 476T764
559T620 634T464 713T320 812T215 946T175 1128Q175 1241 236 1327T408 1461T670 1509Q822 1509 929 1465T1094 1341T1151 1160Q1151 1079 1115 998T999 851T791 748L671 870Q781 904 829 978T879 1141Q881 1218 826 1269T670 1320Q577 1320 518 1272T458 1151Q458
1085 499 1034T607 939T754 856T915 772T1063 677T1172 557T1215 402Q1216 266 1145 173T952 32T680 -16Z" />
<glyph unicode="9" horiz-adv-x="1399" d="M139 957Q139 1116 205 1240T401 1435T719 1506Q888 1506 1009 1427T1196 1212T1261 904Q1261 728 1207 577T1061 303T856 89T623 -57T394 -130L313 48Q459 84 574 167T770 361T893 591T938 820Q940 959 916 1066T834
1233T681 1294Q607 1294 554 1259T472 1164T443 1028Q443 867 501 792T644 716Q705 716 734 726T788 746L847 582Q824 555 750 521T552 487Q426 487 334 550T190 721T139 957Z" />
<glyph unicode=":" horiz-adv-x="629" d="M307 -22Q230 -22 179 31T127 162Q127 217 153 263T224 337T322 365Q406 365 453 312T501 182Q502 127 476 81T405 6T307 -22ZM307 719Q230 719 179 772T127 903Q127 958 153 1004T224 1078T322 1106Q406 1106 453 1053T501
923Q502 868 476 822T405 747T307 719Z" />
<glyph unicode=";" horiz-adv-x="629" d="M407 -398V-374Q446 -349 476 -280T506 -121Q506 -77 489 -34T447 40T397 74V162L607 292Q668 270 706 216T762 96T780 -26Q780 -135 744 -232T648 -398T514 -495L407 -398ZM307 719Q230 719 179 772T127 903Q127 958
153 1004T224 1078T322 1106Q406 1106 453 1053T501 923Q502 868 476 822T405 747T307 719Z" />
<glyph unicode="&lt;" horiz-adv-x="1341" d="M190 681V832L1120 1302V1030L503 739V771L1120 502V223L190 681Z" />
<glyph unicode="=" horiz-adv-x="1385" d="M244 899V1113H1142V899H244ZM244 400V613H1142V400H244Z" />
<glyph unicode="&gt;" horiz-adv-x="1340" d="M1145 681V832L215 1302V1030L832 739V771L215 502V223L1145 681Z" />
<glyph unicode="?" horiz-adv-x="1079" d="M334 506Q307 547 283 609T256 762Q255 843 292 901T384 1006T495 1094T590 1184T634 1299Q651 1423 572 1492T319 1561Q241 1561 189 1549T110 1526V1747Q130 1760 173 1772T274 1792T388 1800Q545 1800 656 1764T837
1662T935 1510T955 1326Q951 1238 919 1176T840 1068T741 984T642 909T564 825T530 715Q525 663 538 616T567 506H334ZM469 -22Q397 -22 347 28T297 155Q296 206 322 249T391 320T486 347Q566 347 612 297T658 173Q659 120 633 76T564 5T469 -22Z" />
<glyph unicode="@" horiz-adv-x="2147" d="M1002 -456Q826 -456 670 -404T395 -245T208 26T140 417Q140 663 222 863T451 1207T789 1428T1198 1506Q1425 1506 1602 1424T1882 1182T1984 791Q1984 593 1934 444T1800 196T1612 46T1402 -4Q1313 -4 1268 39T1217
178Q1213 225 1221 304T1267 520Q1269 520 1284 520T1315 520T1332 520Q1303 436 1260 345T1160 175T1029 46T863 -4Q794 -4 727 43T616 187T576 429Q578 530 612 638T717 839T895 990T1154 1048Q1213 1048 1275 1035T1379 994L1562 1026Q1550 973 1534 898T1501
737T1467 569T1437 417Q1415 295 1422 239T1466 183Q1519 183 1575 224T1678 340T1755 523T1785 761Q1785 933 1734 1044T1597 1220T1403 1310T1180 1336Q1014 1336 863 1274T595 1093T410 805T342 424Q342 223 400 87T556 -132T775 -250T1022 -286Q1140 -286 1223
-269T1364 -228T1461 -184L1502 -333Q1435 -377 1310 -416T1002 -456ZM927 217Q967 217 1011 256T1099 359T1179 501T1242 658T1276 804Q1256 833 1214 846T1124 860Q1057 860 1001 826T905 732T841 601T817 455Q815 342 843 280T927 217Z" />
<glyph unicode="A" horiz-adv-x="1404" d="M325 0H-4L534 1499H872L1409 0H1075L746 1052L700 1224L653 1052L325 0ZM301 315L342 538H1024L1065 315H301Z" />
<glyph unicode="B" horiz-adv-x="1382" d="M177 0V1488L328 1486Q378 1486 430 1489T542 1496T677 1500Q868 1500 987 1455T1162 1326T1217 1130Q1217 1055 1193 986T1118 865T992 793Q1080 784 1150 738T1261 617T1302 449Q1302 313 1248 209T1061 46T692 -14Q596
-14 495 -9T334 0H177ZM488 869Q506 866 531 865T583 863T635 862T679 862Q791 862 853 917T916 1097Q916 1199 845 1243T638 1287Q623 1287 591 1286T529 1282T488 1274V869ZM488 220Q502 211 538 206T617 199T692 197Q834 197 909 251T984 437Q984 550 914 605T688
660Q666 660 638 660T580 659T526 657T488 653V220Z" />
<glyph unicode="C" horiz-adv-x="1285" d="M88 739Q88 926 145 1068T303 1307T536 1453T820 1502Q927 1502 999 1491T1121 1466T1210 1444L1168 1172Q1149 1184 1111 1203T1007 1238T843 1254Q716 1254 618 1195T464 1025T408 757Q408 600 459 481T611 295T855
227Q922 227 991 242T1114 278T1194 321V62Q1154 46 1102 28T983 -3T826 -16Q594 -16 429 77T176 341T88 739Z" />
<glyph unicode="D" horiz-adv-x="1483" d="M167 0V1486Q189 1486 210 1486T253 1486T295 1486Q337 1486 401 1490T538 1498T679 1502Q1050 1502 1225 1313T1400 783Q1400 529 1311 350T1056 76T656 -16Q560 -14 463 -7T283 0Q264 0 245 0T206 0T167 0ZM481 233Q519
223 574 219T683 216Q800 217 888 273T1025 446T1075 750Q1075 944 1028 1059T887 1224T651 1275Q605 1275 558 1271T481 1261V233Z" />
<glyph unicode="E" horiz-adv-x="1210" d="M167 0V1486H1074V1250H479V877H930V646H479V241H1137V0H167Z" />
<glyph unicode="F" horiz-adv-x="1097" d="M167 0V1486H1066V1250H480V846H922V612H480V0H167Z" />
<glyph unicode="G" horiz-adv-x="1445" d="M89 736Q89 936 146 1081T304 1319T539 1457T827 1502Q938 1502 1009 1492T1135 1469T1251 1444L1241 1176Q1177 1209 1082 1233T832 1257Q702 1257 608 1198T461 1029T409 762Q409 608 452 485T581 291T795 219Q875
219 939 229T1042 259V601L1087 558L808 574V800H1332V87Q1294 86 1251 70T1149 34T1007 -1T801 -16Q580 -16 421 76T175 338T89 736Z" />
<glyph unicode="H" horiz-adv-x="1543" d="M167 0V1486H481V865H1064V1486H1376V0H1064V635H481V0H167Z" />
<glyph unicode="I" horiz-adv-x="695" d="M189 0V1486H505V0H189Z" />
<glyph unicode="J" horiz-adv-x="751" d="M40 -324L-35 -165Q39 -136 111 -78T214 93Q237 175 241 297T246 594V1486H560V598Q560 453 561 324T542 89Q523 -14 467 -91T335 -219T181 -296T40 -324Z" />
<glyph unicode="K" horiz-adv-x="1388" d="M167 0V1486H474V810L991 1486H1338L765 761L703 709L429 389L474 597V0H167ZM947 115Q908 187 864 260T775 406T685 545T602 672L713 778L809 887Q834 853 877 787T975 634T1088 455T1200 272T1297 108Q1308 90 1318
72T1339 36T1361 0H1008Q995 20 984 44T947 115Z" />
<glyph unicode="L" horiz-adv-x="1072" d="M167 0V1486H477V251H1014V0H167Z" />
<glyph unicode="M" horiz-adv-x="1912" d="M90 0L254 1486H682L897 692L969 357L1029 692L1228 1486H1640L1822 0H1517L1444 833L1420 1254L1323 826L1083 -11H835L579 826L477 1254L449 833L383 0H90Z" />
<glyph unicode="N" horiz-adv-x="1547" d="M167 0V1486H457L1014 607L1208 220H1139L1094 719V1486H1380V0H1070L538 852L315 1292H399L451 751V0H167Z" />
<glyph unicode="O" horiz-adv-x="1542" d="M766 -16Q552 -20 398 75T164 345T88 752Q93 1009 186 1173T437 1418T795 1502Q1000 1506 1149 1414T1378 1150T1453 745Q1448 488 1359 321T1117 71T766 -16ZM772 214Q939 214 1037 345T1135 755Q1135 901 1097 1017T981
1200T788 1268Q684 1268 598 1216T459 1048T407 740Q407 593 448 474T570 285T772 214Z" />
<glyph unicode="P" horiz-adv-x="1305" d="M167 0V1486H294Q392 1486 489 1494T692 1502Q864 1502 987 1452T1176 1289T1243 994Q1243 739 1091 599T649 459Q586 459 547 460T481 461V0H167ZM481 695Q519 690 559 688T643 686Q723 686 789 713T895 807T935 995Q935
1137 861 1212T638 1282Q600 1281 558 1278T481 1268V695Z" />
<glyph unicode="Q" horiz-adv-x="1554" d="M1194 -323Q1050 -323 958 -293T805 -188T689 17L836 59H938Q963 -2 995 -34T1081 -79T1221 -91Q1261 -91 1299 -84T1370 -66V-280Q1345 -294 1303 -308T1194 -323ZM766 -16Q552 -20 398 75T164 345T88 752Q93 1009 186
1173T437 1418T795 1502Q1000 1506 1149 1414T1378 1150T1453 745Q1448 488 1359 321T1117 71T766 -16ZM772 214Q939 214 1037 345T1135 755Q1135 901 1097 1017T981 1200T788 1268Q684 1268 598 1216T459 1048T407 740Q407 593 448 474T570 285T772 214Z" />
<glyph unicode="R" horiz-adv-x="1388" d="M480 0H167V1486Q187 1486 206 1486T245 1486T285 1486Q361 1486 462 1494T704 1502Q808 1502 904 1480T1075 1406T1195 1267T1239 1051Q1239 906 1191 811T1057 662T854 590Q814 584 773 579T665 570T480 566V0ZM480
786Q501 783 539 781T616 779T680 779Q807 779 870 850T934 1043Q934 1111 911 1164T828 1248T663 1279Q616 1279 568 1275T480 1261V786ZM994 0Q981 17 972 38T940 108Q909 175 883 253T827 402T760 520T668 571L756 640L951 653Q1008 628 1051 568T1131 428T1203
265T1280 109Q1295 81 1310 54T1341 0H994Z" />
<glyph unicode="S" horiz-adv-x="1169" d="M568 -16Q465 -16 373 -1T214 35T119 73L166 321Q203 299 263 278T397 242T544 227Q663 227 721 264T779 383Q779 441 747 480T647 558T469 648Q376 693 294 755T161 903T110 1104Q110 1208 150 1283T262 1407T426 1479T627
1502Q781 1502 880 1473T1018 1419L965 1181Q918 1215 835 1242T645 1270Q574 1270 522 1253T440 1204T411 1124Q411 1068 438 1029T526 953T682 869Q769 828 843 784T973 686T1060 565T1091 409Q1091 275 1028 180T848 34T568 -16Z" />
<glyph unicode="T" horiz-adv-x="1241" d="M463 0V1246H40V1486H1201V1246H778V0H463Z" />
<glyph unicode="U" horiz-adv-x="1477" d="M746 -16Q526 -16 393 62T201 284T141 623L144 1486H456L452 668Q452 493 485 399T584 268T745 231Q836 231 899 268T994 401T1027 668V1486H1336V618Q1336 317 1193 151T746 -16Z" />
<glyph unicode="V" horiz-adv-x="1356" d="M547 -7L0 1486H333L614 643L686 374L758 643L1024 1486H1355L816 -7H547Z" />
<glyph unicode="W" horiz-adv-x="1922" d="M398 -13L1 1486H316L503 605L568 164H531L603 605L830 1486H1100L1333 605L1415 162H1373L1437 605L1615 1486H1921L1532 -13H1224L1000 838L912 1379H998L917 838L693 -13H398Z" />
<glyph unicode="X" horiz-adv-x="1333" d="M29 0L507 811L509 713L37 1486L379 1488L598 1105L709 908H652L760 1105L968 1486H1294L826 696L817 789L1306 0H961L732 404L618 613L690 615L580 404L356 0H29Z" />
<glyph unicode="Y" horiz-adv-x="1246" d="M464 0V609L498 479L-25 1486H315L578 941L656 741H612L678 941L941 1486H1272L749 477L783 608V0H464Z" />
<glyph unicode="Z" horiz-adv-x="1243" d="M90 0L49 82L716 1168L777 1252H124V1486H1156L1198 1408L544 332L472 237H1154V0H90Z" />
<glyph unicode="[" horiz-adv-x="817" d="M169 63V1452Q169 1548 185 1602T243 1680T360 1703Q469 1703 543 1695T694 1679V1524H441V-26L694 -27V-174Q617 -184 543 -192T360 -200Q285 -200 244 -175T186 -91T169 63Z" />
<glyph unicode="\" horiz-adv-x="941" d="M855 -354L307 1562H58L606 -354H855Z" />
<glyph unicode="]" horiz-adv-x="817" d="M648 63V1452Q648 1548 632 1602T574 1680T457 1703Q348 1703 274 1695T123 1679V1524H376V-26L123 -27V-174Q200 -184 274 -192T457 -200Q532 -200 573 -175T631 -91T648 63Z" />
<glyph unicode="^" horiz-adv-x="1346" d="M156 487L574 1496H773L1190 487H909L665 1126H682L443 487H156Z" />
<glyph unicode="_" horiz-adv-x="1657" d="M-37 -401V-244H1695V-401H-37Z" />
<glyph unicode="`" horiz-adv-x="645" d="M596 1350L453 1221Q421 1237 366 1279T249 1377T135 1493T58 1602L264 1766Q306 1702 364 1625T483 1476T596 1350Z" />
<glyph unicode="a" horiz-adv-x="1184" d="M442 -16Q336 -16 256 27T132 147T87 326Q87 428 142 501T293 615Q358 642 435 657T590 678T735 684L786 621L735 523Q699 523 654 518T568 504T498 482Q459 464 429 434T398 342Q398 261 443 223T559 184Q596 184 632
194T697 217T735 243L788 180L751 94Q706 54 628 19T442 -16ZM1040 0H751V166H735V766Q735 851 690 877T561 904Q498 904 430 893T300 864T198 825L132 1017Q166 1037 238 1064T403 1111T590 1132Q744 1132 843 1096T991 974T1040 736V0Z" />
<glyph unicode="b" horiz-adv-x="1285" d="M153 1622H455V1198L446 972L455 966V167L153 62V1622ZM620 -19Q544 -19 467 -10T323 12T211 39T153 62L455 227Q475 208 519 199T627 190Q699 190 757 234T848 364T883 573Q884 753 824 826T660 899Q594 899 540 876T455
829L418 984Q441 1008 482 1042T591 1102T758 1128Q877 1128 976 1071T1136 896T1197 598Q1197 412 1126 274T925 58T620 -19Z" />
<glyph unicode="c" horiz-adv-x="994" d="M73 545Q73 709 133 841T315 1050T627 1128Q736 1128 815 1110T922 1073L884 840Q847 863 792 877T654 891Q589 891 527 861T423 762T378 577Q375 452 411 373T511 256T653 218Q729 218 794 234T895 268L940 81Q892 33
796 9T592 -16Q419 -16 304 57T131 258T73 545Z" />
<glyph unicode="d" horiz-adv-x="1292" d="M854 0V139L832 154V909L840 916L832 1198V1625H1134V0H854ZM526 -16Q408 -16 309 42T148 219T87 518Q87 703 157 840T353 1053T649 1128Q752 1128 818 1106T904 1069L833 876Q808 897 762 905T657 914Q585 914 528 873T437
748T403 539Q401 366 460 291T624 216Q688 216 744 238T833 283L870 131Q847 106 804 72T693 11T526 -16Z" />
<glyph unicode="e" horiz-adv-x="1159" d="M621 -16Q364 -16 227 137T90 560Q90 722 152 850T334 1052T625 1128Q712 1129 791 1106T932 1032T1031 896T1070 689Q1070 628 1068 576T1059 487H254L274 652H786Q791 733 778 794T725 890T615 925Q546 925 495 887T416
757T392 502Q396 393 434 328T539 234T694 205Q742 205 799 213T907 234T985 262L1036 96Q999 66 935 41T789 0T621 -16Z" />
<glyph unicode="f" horiz-adv-x="834" d="M226 0V905H77V1080L226 1114V1221Q226 1343 263 1424T363 1554T500 1622T647 1643Q717 1643 767 1635T834 1622V1404Q811 1413 775 1419T681 1426Q616 1426 575 1379T533 1230V1114H788V905H533V0H226Z" />
<glyph unicode="g" horiz-adv-x="1270" d="M603 -504Q340 -502 212 -416T83 -170Q83 -111 111 -64T187 17T298 69L472 53Q455 39 433 18T393 -36T376 -120Q376 -177 397 -224T471 -299T618 -327Q696 -327 760 -310T862 -256T900 -161Q900 -111 883 -74T814 -15T662
6H477Q439 6 410 11T353 23Q334 28 327 33T298 43Q223 64 191 104T159 205Q160 244 176 286T231 368T337 436L509 405Q469 390 447 358T424 293Q424 244 454 226T560 207H761Q890 207 974 182T1106 114T1173 16T1193 -98Q1193 -198 1145 -274T1014 -402T825 -479T603
-504ZM587 377Q449 377 343 421T176 548T116 746Q116 871 175 956T340 1084T589 1128Q732 1129 840 1087T1009 962T1070 755Q1070 633 1014 549T850 421T587 377ZM591 548Q679 548 732 588T786 749Q786 846 740 895T598 945Q542 945 500 929T435 870T411 752Q411
669 452 609T591 548ZM939 897L891 1023Q911 1050 972 1083T1115 1117H1245V897H939Z" />
<glyph unicode="h" horiz-adv-x="1294" d="M153 0V1625H458V1190L442 961L432 989Q469 1021 527 1053T656 1107T800 1130Q982 1135 1066 1029T1151 691V0H844V656Q844 788 806 838T674 885Q632 884 571 865T458 802V0H153Z" />
<glyph unicode="i" horiz-adv-x="629" d="M162 0V1113H467V0H162ZM299 1530Q225 1530 174 1576T123 1696Q123 1746 150 1787T222 1854T318 1879Q400 1879 446 1833T493 1713Q493 1637 436 1584T299 1530Z" />
<glyph unicode="j" horiz-adv-x="623" d="M-93 -474V-273Q-80 -280 -41 -286T31 -293Q107 -293 140 -230T173 -15V1113H474V64Q474 -144 427 -266T290 -442T77 -496Q52 -496 17 -493T-50 -484T-93 -474ZM311 1275Q237 1275 186 1321T135 1441Q135 1491 162 1532T234
1599T330 1624Q412 1624 458 1578T505 1458Q505 1382 448 1329T311 1275Z" />
<glyph unicode="k" horiz-adv-x="1203" d="M1176 1114L434 326L448 391L452 198V0H153V662V1622H452V907L440 569L393 614L825 1114H1176ZM551 501L753 708L1211 0H870L551 501Z" />
<glyph unicode="l" horiz-adv-x="614" d="M154 0V1625H460V0H154Z" />
<glyph unicode="m" horiz-adv-x="1963" d="M156 0V1113H433L438 994Q477 1024 536 1055T666 1107T809 1130Q924 1133 998 1093T1108 958T1144 701V0H840V656Q840 742 826 792T777 865T676 885Q632 885 571 864T460 802V0H156ZM1131 797L1075 986Q1107 1014 1166
1047T1304 1105T1469 1130Q1584 1131 1662 1092T1780 958T1820 700V0H1514V657Q1514 743 1501 793T1452 865T1350 885Q1293 885 1233 858T1131 797Z" />
<glyph unicode="n" horiz-adv-x="1292" d="M156 0V1113H433L438 988Q476 1020 535 1052T665 1107T810 1130Q984 1134 1066 1038T1148 699V0H842V656Q842 786 808 838T675 886Q645 885 608 876T532 848T460 802V0H156Z" />
<glyph unicode="o" horiz-adv-x="1228" d="M604 -16Q458 -16 356 31T192 162T101 352T74 580Q77 758 148 880T343 1065T624 1128Q820 1128 937 1046T1105 829T1153 534Q1151 355 1080 233T886 47T604 -16ZM612 197Q731 196 785 286T839 547Q839 648 817 731T747
864T618 915Q498 916 444 828T390 572Q390 470 412 385T482 248T612 197Z" />
<glyph unicode="p" horiz-adv-x="1297" d="M159 -494V1114H444V978L464 954V122L461 44L464 -136V-494H159ZM644 -16Q543 -16 478 7T394 45L464 239Q489 215 533 205T635 194Q709 194 766 238T856 366T891 573Q892 751 833 825T670 899Q605 899 551 876T464 828L427
983Q450 1008 491 1042T600 1102T767 1128Q885 1128 986 1071T1148 896T1209 598Q1209 412 1139 275T942 61T644 -16Z" />
<glyph unicode="q" horiz-adv-x="1296" d="M834 -136L838 106L834 194V954L856 978L873 1074L1138 1114V-494H834V-136ZM529 -16Q411 -16 311 42T149 219T87 518Q87 703 158 840T355 1053T652 1128Q754 1128 837 1106T954 1062L834 876Q808 897 764 905T661 914Q588
914 531 873T441 748T406 539Q404 366 464 291T627 216Q691 216 747 238T834 283L871 131Q848 106 806 72T697 11T529 -16Z" />
<glyph unicode="r" horiz-adv-x="877" d="M430 726L416 940Q434 988 482 1031T596 1102T735 1130Q765 1130 790 1127T828 1117V820Q814 829 785 838T697 847Q625 847 573 827T486 778T430 726ZM143 0V1113H407L424 939L448 886V0H143Z" />
<glyph unicode="s" horiz-adv-x="1000" d="M94 71L128 286Q144 273 193 252T310 214T450 196Q541 195 584 220T627 297Q627 332 599 358T521 406T412 453Q304 496 234 547T129 663T95 817Q96 921 155 990T314 1093T535 1128Q658 1128 744 1106T863 1064L830 845Q811
861 770 879T678 908T573 920Q476 920 432 897T387 829Q386 772 431 745T558 683Q678 634 759 586T882 475T924 322Q924 156 805 70T484 -16Q399 -16 321 -3T183 31T94 71Z" />
<glyph unicode="t" horiz-adv-x="888" d="M493 -16Q391 -16 325 17T226 124T193 317V905H58V1068Q132 1089 176 1108T241 1174Q251 1197 262 1228T287 1295T314 1368H498V1114H797V905H498V446Q498 340 509 292T547 230T625 216Q651 216 685 222T750 239T798 260L838
89Q811 65 757 41T634 0T493 -16Z" />
<glyph unicode="u" horiz-adv-x="1262" d="M492 -16Q376 -16 305 18T196 117T146 268T133 460V1114H437V456Q437 351 455 299T510 230T607 213Q643 213 681 223T751 247T800 275V1114H1105V-16H911Q872 -16 851 -4T829 52V126L835 97Q794 65 736 40T613 -1T492 -16Z" />
<glyph unicode="v" horiz-adv-x="1141" d="M432 -16L4 1114H331L504 571L612 171H549L648 571L815 1114H1137L715 -16H432Z" />
<glyph unicode="w" horiz-adv-x="1681" d="M344 -16L7 1114H307L440 580L529 161H460L554 579L707 1114H989L1142 580L1232 164H1166L1253 577L1385 1114H1673L1326 -16H1055L879 599L811 931H866L796 599L625 -16H344Z" />
<glyph unicode="x" horiz-adv-x="1151" d="M14 0L422 591L427 525L14 1114H350L542 816L620 685H543L610 817L795 1114H1129L712 531V608L1137 0H797L596 317L518 448H604L539 316L355 0H14Z" />
<glyph unicode="y" horiz-adv-x="1146" d="M127 -478V-238Q144 -244 180 -250T238 -256Q286 -256 343 -239T451 -161T527 28L541 0H409L19 1114H344L535 469L625 127H583L664 469L820 1114H1143L785 -29Q721 -229 629 -332T429 -470Q399 -482 353 -489T271 -496Q256
-496 224 -493T163 -486T127 -478Z" />
<glyph unicode="z" horiz-adv-x="1050" d="M87 0L45 81L536 813L594 900H118L119 1114H966L1001 1020L517 303L456 216H972V0H87Z" />
<glyph unicode="{" horiz-adv-x="969" d="M323 58V532Q323 568 281 597T181 646T73 671V847Q122 852 180 869T281 913T323 978V1452Q323 1596 374 1654T538 1713Q619 1713 698 1706T840 1689V1530H590V973Q590 942 580 917T551 871Q528 844 489 822T404 781T317
747V769Q358 755 403 737T487 695T551 643Q570 624 580 600T590 543V-26H840V-173Q777 -190 698 -198T538 -207Q426 -207 375 -147T323 58Z" />
<glyph unicode="|" horiz-adv-x="839" d="M295 -183V1738H544V-183H295Z" />
<glyph unicode="}" horiz-adv-x="969" d="M642 58V532Q642 568 684 597T784 646T892 671V847Q843 852 785 869T684 913T642 978V1452Q642 1596 591 1654T427 1713Q346 1713 267 1706T125 1689V1530H375V973Q375 942 385 917T414 871Q437 844 476 822T561 781T648
747V769Q607 755 562 737T478 695T414 643Q395 624 385 600T375 543V-26H125V-173Q188 -190 267 -198T427 -207Q539 -207 590 -147T642 58Z" />
<glyph unicode="~" horiz-adv-x="1409" d="M326 666L196 787Q209 825 253 877T367 969T521 1009Q596 1009 646 985T734 931T812 876T904 852Q974 852 1020 886T1098 957L1213 822Q1199 778 1156 730T1044 647T889 613Q815 613 768 637T685 692T611 747T515 771Q446
771 403 737T326 666Z" />
<glyph unicode="&#xa0;" horiz-adv-x="358" />
<glyph unicode="&#xa1;" horiz-adv-x="629" d="M432 767L474 -426H136L170 767H432ZM317 1334Q394 1334 444 1281T496 1150Q497 1095 471 1049T399 975T301 947Q217 947 170 1000T122 1130Q122 1185 148 1231T218 1306T317 1334Z" />
<glyph unicode="&#xa2;" horiz-adv-x="1165" d="M580 1042L588 1344H755L749 1042H580ZM549 -210L555 90H723L717 -210H549ZM126 545Q126 709 186 841T368 1050T679 1128Q789 1128 868 1110T974 1073L936 840Q899 863 844 877T707 891Q642 891 580 861T476 762T431
577Q428 452 464 373T564 256T706 218Q782 218 846 234T947 268L992 81Q944 33 848 9T645 -16Q472 -16 357 57T184 258T126 545Z" />
<glyph unicode="&#xa3;" horiz-adv-x="1546" d="M116 106Q116 158 151 197T244 258T374 285Q388 303 394 341T403 425T406 508V1008Q406 1153 466 1264T642 1439T926 1502Q1060 1502 1146 1471T1282 1404L1156 1180Q1123 1208 1066 1235T933 1263Q875 1263 825
1243T745 1158T714 960L715 610Q716 472 696 382T625 245Q677 234 720 220T813 196T931 185Q1050 185 1101 231T1153 345Q1153 396 1130 435T1085 485L1300 591Q1322 578 1355 546T1413 461T1439 333Q1439 171 1329 77T990 -18Q884 -18 802 -2T658 35T547 72T457
87Q427 55 370 25T253 -6Q223 -6 192 5T138 41T116 106ZM234 697V876H1021V697H234Z" />
<glyph unicode="&#xa4;" horiz-adv-x="1514" d="M755 312Q635 312 535 370T376 529T316 754Q316 879 375 979T534 1139T755 1198Q876 1198 976 1139T1137 980T1197 754Q1197 630 1137 530T977 371T755 312ZM757 526Q819 526 869 557T947 641T976 754Q976 817 948
869T869 952T757 983Q695 983 645 952T565 869T535 754Q535 693 564 641T644 558T757 526ZM417 982L203 1200L339 1344L553 1124L417 982ZM1098 978L959 1124L1186 1352L1324 1207L1098 978ZM340 165L202 307L416 525L555 383L340 165ZM1174 165L958 385L1096 529L1311
308L1174 165Z" />
<glyph unicode="&#xa5;" horiz-adv-x="1526" d="M620 0V827L697 604L140 1486H467L702 1071L804 852Q799 852 786 852T759 852T740 852L838 1072L1079 1486H1401L848 615L908 827V0H620ZM263 637V818H1249V637H263ZM263 262V441H1249V262H263Z" />
<glyph unicode="&#xa6;" horiz-adv-x="839" d="M295 -182V604H544V-182H295ZM295 941V1738H544V941H295Z" />
<glyph unicode="&#xa7;" horiz-adv-x="1356" d="M230 1296Q230 1389 270 1453T379 1558T528 1616T693 1634Q832 1634 923 1611T1057 1562L1012 1340Q980 1363 908 1390T711 1417Q657 1417 612 1406T540 1368T512 1298Q512 1252 548 1218T642 1153T772 1092T913
1024T1042 938T1137 824T1173 669Q1173 549 1103 455T926 293L809 344Q829 370 855 418T901 519T921 613Q921 678 884 725T785 808T650 877T502 946T367 1029T268 1141T230 1296ZM1134 164Q1134 67 1092 0T979 -108T824 -169T654 -188Q516 -188 404 -159T246 -98L291
125Q329 97 419 63T637 30Q695 30 744 42T823 82T853 156Q853 205 805 239T681 303T520 367T360 450T236 568T188 741Q188 852 257 942T428 1094L557 1036Q538 1010 512 970T465 885T444 799Q444 737 481 695T580 622T715 563T862 503T997 426T1096 319T1134 164Z"
/>
<glyph unicode="&#xa8;" horiz-adv-x="946" d="M224 1281Q152 1281 106 1326T60 1445Q60 1518 115 1571T243 1624Q321 1624 362 1578T403 1461Q403 1386 351 1334T224 1281ZM705 1281Q634 1281 589 1326T543 1445Q543 1518 597 1571T725 1624Q803 1624 844 1578T886
1461Q886 1386 834 1334T705 1281Z" />
<glyph unicode="&#xa9;" horiz-adv-x="2056" d="M177 940Q177 1119 242 1274T424 1546T695 1729T1027 1795Q1206 1795 1360 1729T1630 1546T1812 1274T1878 940Q1878 762 1813 606T1631 332T1360 148T1027 81Q849 81 695 147T425 332T243 606T177 940ZM316 940Q316
789 369 656T518 422T744 264T1027 207Q1181 207 1310 264T1536 422T1685 656T1738 940Q1738 1092 1685 1224T1536 1458T1311 1616T1027 1673Q874 1673 744 1616T518 1458T369 1225T316 940ZM592 932Q592 1070 647 1180T810 1354T1076 1418Q1163 1418 1227 1400T1319
1366L1284 1179Q1250 1203 1193 1219T1072 1235Q955 1235 887 1159T817 961Q817 800 888 726T1070 651Q1148 651 1206 671T1297 711L1341 560Q1295 521 1211 492T1029 463Q895 463 797 528T646 700T592 932Z" />
<glyph unicode="&#xaa;" horiz-adv-x="1038" d="M408 653Q275 653 196 723T116 916Q116 1015 169 1079T302 1173Q356 1194 416 1206T536 1223T655 1228L697 1152L655 1091Q593 1091 537 1086T436 1057Q396 1035 380 1005T364 935Q364 885 401 858T489 830Q550
830 595 848T655 878L697 808L666 747Q638 717 567 685T408 653ZM909 660H781Q726 660 696 667T666 734V797H655V1273Q655 1351 615 1373T484 1395Q439 1395 380 1383T270 1353T197 1320L141 1471Q159 1488 222 1513T370 1559T531 1579Q716 1579 812 1513T909 1277V1140V660Z"
/>
<glyph unicode="&#xab;" horiz-adv-x="1947" d="M225 479V719L846 1130L919 919L448 547V655L919 284L846 73L225 479ZM991 479V719L1631 1130L1704 919L1214 547V655L1704 284L1631 73L991 479Z" />
<glyph unicode="&#xac;" horiz-adv-x="1441" d="M237 621V832H1205V302H965V621H237Z" />
<glyph unicode="&#xad;" horiz-adv-x="1190" d="M180 537V771H1010V537H180Z" />
<glyph unicode="&#xae;" horiz-adv-x="2056" d="M175 940Q175 1118 240 1273T422 1545T694 1729T1027 1795Q1206 1795 1360 1729T1632 1546T1815 1273T1881 940Q1881 762 1816 606T1633 332T1361 148T1027 81Q849 81 694 147T423 332T241 606T175 940ZM314 940Q314
789 367 656T518 422T745 264T1027 207Q1180 207 1310 264T1537 422T1687 656T1741 940Q1741 1091 1688 1223T1537 1457T1310 1615T1027 1672Q875 1672 745 1615T518 1457T368 1224T314 940ZM697 471V1413Q720 1413 741 1413T784 1413Q823 1413 860 1414T940 1416T1040
1417Q1221 1417 1307 1340T1394 1149Q1394 1042 1354 959T1207 845Q1250 818 1279 775T1331 684T1380 590Q1394 566 1409 542T1458 473H1227Q1209 495 1196 519T1168 575Q1149 616 1127 667T1075 761T999 821Q991 820 974 820T936 819T900 819V471H697ZM900 968Q914
965 935 964T979 962T1020 962Q1103 962 1146 1001T1189 1124Q1189 1193 1149 1232T1001 1269Q972 1269 950 1268T900 1258V968Z" />
<glyph unicode="&#xaf;" horiz-adv-x="679" d="M51 1380V1584H628V1380H51Z" />
<glyph unicode="&#xb0;" horiz-adv-x="930" d="M104 1248Q104 1351 151 1431T280 1558T465 1605Q567 1605 649 1558T779 1430T827 1248Q827 1145 780 1064T651 937T465 890Q364 890 282 937T152 1066T104 1248ZM300 1248Q300 1172 349 1124T465 1076Q534 1076
582 1124T630 1248Q630 1324 581 1372T465 1420Q396 1420 348 1373T300 1248Z" />
<glyph unicode="&#xb1;" horiz-adv-x="1365" d="M234 0V202H1123V0H234ZM564 256V460L571 648L412 642H200V871H412L571 864L564 1052V1257H800V1052L793 864L940 871H1165V642H940L793 648L800 460V256H564Z" />
<glyph unicode="&#xb2;" horiz-adv-x="1025" d="M118 800L80 904Q133 930 204 978T348 1091T484 1231T585 1387T624 1548Q624 1626 576 1668T430 1711Q356 1711 284 1679T172 1611L88 1763Q121 1796 182 1831T324 1890T499 1914Q646 1914 731 1863T852 1732T888
1562Q888 1447 828 1349T664 1165T433 995L925 1012V800H118Z" />
<glyph unicode="&#xb3;" horiz-adv-x="893" d="M95 825L94 985Q132 978 175 972T254 966Q345 966 416 985T528 1043T569 1139Q569 1176 551 1211T487 1269T360 1287L246 1259L215 1412Q268 1424 321 1439T405 1473Q458 1502 489 1535T521 1615Q523 1670 475 1697T358
1724Q272 1724 217 1699T127 1649L57 1809Q77 1832 130 1857T255 1900T400 1918Q531 1918 615 1884T738 1791T778 1653Q778 1543 707 1470T536 1360V1379Q645 1381 711 1343T806 1246T836 1128Q836 1030 774 952T599 829T330 784Q235 784 176 801T95 825Z" />
<glyph unicode="&#xb4;" horiz-adv-x="644" d="M188 1229L42 1359Q91 1411 150 1478T267 1619T373 1766L578 1602Q557 1556 506 1498T392 1383T274 1285T188 1229Z" />
<glyph unicode="&#xb5;" horiz-adv-x="1358" d="M170 -362V1114H474V447Q474 322 521 268T670 214Q698 214 729 223T791 246T842 279V1114H1147V277Q1147 232 1160 218T1190 203Q1199 203 1220 208T1269 229L1299 84Q1293 74 1261 50T1174 4T1051 -18Q985 -18
943 13T897 118Q878 90 847 59T766 6T645 -16Q539 -16 471 19T363 148L412 158L448 -362H170Z" />
<glyph unicode="&#xb6;" horiz-adv-x="1443" d="M563 0V758Q435 758 340 805T192 954T140 1218Q140 1429 283 1549T722 1670Q769 1670 836 1668T978 1662T1126 1656T1255 1652V0H1015L1014 1481H804V0H563Z" />
<glyph unicode="&#xb7;" horiz-adv-x="629" d="M307 554Q230 554 179 607T127 738Q127 793 153 839T224 913T322 941Q406 941 453 888T501 758Q502 703 476 657T405 582T307 554Z" />
<glyph unicode="&#xb8;" horiz-adv-x="500" d="M35 -426L54 -265Q67 -272 87 -274T130 -277Q177 -277 211 -242T248 -131Q253 -67 243 -32T218 30L346 34L394 30Q416 9 430 -31T450 -119T455 -216Q450 -340 377 -397T205 -454Q177 -454 142 -451T77 -441T35 -426Z" />
<glyph unicode="&#xb9;" horiz-adv-x="800" d="M340 800V1619Q306 1602 266 1591T183 1573T95 1564L60 1707Q157 1725 232 1763T361 1845T448 1923L450 1922L600 1882L599 800H340Z" />
<glyph unicode="&#xba;" horiz-adv-x="1036" d="M81 1129Q83 1252 123 1338T229 1478T374 1557T534 1582Q670 1582 762 1522T902 1355T948 1109Q945 946 882 846T719 700T512 654Q302 654 191 783T81 1129ZM343 1129Q343 998 389 920T523 842Q604 844 645 905T687
1107Q687 1241 646 1317T523 1392Q442 1391 393 1331T343 1129Z" />
<glyph unicode="&#xbb;" horiz-adv-x="1962" d="M1731 479L1098 73L1025 284L1509 655V547L1025 918L1098 1130L1731 719V479ZM937 479L310 73L237 284L715 655V547L237 918L310 1130L937 719V479Z" />
<glyph unicode="&#xbc;" horiz-adv-x="2242" d="M340 780V1599Q306 1582 266 1571T183 1553T95 1544L60 1687Q157 1705 232 1743T361 1825T448 1903L450 1902L600 1862L599 780H340ZM1425 1916H1634L656 -102H447L1425 1916ZM1280 232L1220 330Q1255 399 1294
475T1375 633T1458 797T1536 959T1605 1114H1905Q1840 1002 1778 898T1659 696T1548 507L1490 413H2188V232H1280ZM1774 0V470L1805 736H2012V0H1774Z" />
<glyph unicode="&#xbd;" horiz-adv-x="2345" d="M340 780V1599Q306 1582 266 1571T183 1553T95 1544L60 1687Q157 1705 232 1743T361 1825T448 1903L450 1902L600 1862L599 780H340ZM1425 1916H1634L656 -102H447L1425 1916ZM1437 0L1399 104Q1452 130 1523 178T1667
291T1803 431T1904 587T1943 748Q1943 826 1895 868T1749 911Q1675 911 1603 879T1491 811L1407 963Q1440 996 1501 1031T1643 1090T1818 1114Q1965 1114 2050 1063T2171 932T2207 762Q2207 647 2147 549T1983 365T1752 195L2244 212V0H1437Z" />
<glyph unicode="&#xbe;" horiz-adv-x="2363" d="M95 805L94 965Q132 958 175 952T254 946Q345 946 416 965T528 1023T569 1119Q569 1156 551 1191T487 1249T360 1267L246 1239L215 1392Q268 1404 321 1419T405 1453Q458 1482 489 1515T521 1595Q523 1650 475 1677T358
1704Q272 1704 217 1679T127 1629L57 1789Q77 1812 130 1837T255 1880T400 1898Q531 1898 615 1864T738 1771T778 1633Q778 1523 707 1450T536 1340V1359Q645 1361 711 1323T806 1226T836 1108Q836 1010 774 932T599 809T330 764Q235 764 176 781T95 805ZM1546
1916H1755L777 -102H568L1546 1916ZM1401 232L1341 330Q1376 399 1415 475T1496 633T1579 797T1657 959T1726 1114H2026Q1961 1002 1899 898T1780 696T1669 507L1611 413H2309V232H1401ZM1895 0V470L1926 736H2133V0H1895Z" />
<glyph unicode="&#xbf;" horiz-adv-x="1079" d="M736 982Q764 942 788 880T814 726Q816 645 779 587T687 482T576 394T481 304T437 189Q420 65 499 -4T752 -73Q830 -73 882 -60T960 -38V-259Q942 -272 898 -284T798 -304T683 -312Q526 -312 415 -276T234 -174T137
-22T116 162Q120 251 152 313T231 420T330 504T429 579T507 663T541 773Q546 826 534 873T504 982H736ZM602 1510Q675 1510 724 1460T774 1333Q775 1282 749 1238T680 1168T585 1141Q505 1141 460 1191T413 1315Q412 1368 437 1412T506 1483T602 1510Z" />
<glyph unicode="&#xc0;" horiz-adv-x="1404" d="M325 0H-4L534 1499H872L1409 0H1075L746 1052L700 1224L653 1052L325 0ZM301 315L342 538H1024L1065 315H301ZM840 1721L701 1607Q669 1618 621 1650T519 1727T419 1818T343 1905L556 2034Q561 2018 588 1984T655
1909T733 1828T802 1759T840 1721Z" />
<glyph unicode="&#xc1;" horiz-adv-x="1404" d="M325 0H-4L534 1499H872L1409 0H1075L746 1052L700 1224L653 1052L325 0ZM301 315L342 538H1024L1065 315H301ZM665 1607L526 1720Q534 1728 564 1757T633 1826T712 1908T780 1984T813 2033L1024 1904Q992 1863
946 1817T849 1727T750 1652T665 1607Z" />
<glyph unicode="&#xc2;" horiz-adv-x="1404" d="M325 0H-4L534 1499H872L1409 0H1075L746 1052L700 1224L653 1052L325 0ZM301 315L342 538H1024L1065 315H301ZM483 1591L324 1681L593 1980H809L1080 1683L919 1591L700 1783L483 1591Z" />
<glyph unicode="&#xc3;" horiz-adv-x="1404" d="M325 0H-4L534 1499H872L1409 0H1075L746 1052L700 1224L653 1052L325 0ZM301 315L342 538H1024L1065 315H301ZM855 1623Q799 1623 758 1643T685 1691T623 1739T557 1760Q521 1760 496 1749T454 1716T421 1660L304
1706Q312 1776 345 1832T430 1922T548 1956Q604 1956 644 1936T717 1888T780 1841T846 1820Q877 1820 902 1830T946 1862T979 1920L1098 1872Q1093 1799 1059 1743T971 1655T855 1623Z" />
<glyph unicode="&#xc4;" horiz-adv-x="1404" d="M325 0H-4L534 1499H872L1409 0H1075L746 1052L700 1224L653 1052L325 0ZM301 315L342 538H1024L1065 315H301ZM438 1623Q367 1623 322 1666T277 1779Q277 1852 330 1902T457 1952Q534 1952 575 1909T617 1796Q617
1722 565 1673T438 1623ZM948 1623Q878 1623 833 1666T787 1779Q787 1852 841 1902T967 1952Q1045 1952 1086 1909T1127 1796Q1127 1722 1075 1673T948 1623Z" />
<glyph unicode="&#xc5;" horiz-adv-x="1404" d="M325 0H-4L534 1499H872L1409 0H1075L746 1052L700 1224L653 1052L325 0ZM301 315L342 538H1024L1065 315H301ZM697 1466Q540 1466 450 1540T362 1749Q364 1850 414 1908T543 1992T705 2017Q860 2017 951 1949T1042
1744Q1041 1643 992 1582T865 1494T697 1466ZM699 1615Q772 1614 816 1639T861 1742Q861 1808 815 1839T699 1871Q639 1873 592 1849T544 1746Q544 1684 587 1650T699 1615Z" />
<glyph unicode="&#xc6;" horiz-adv-x="1884" d="M-100 0L609 1486L857 1371L239 0H-100ZM836 1486L898 1344H649L609 1486H836ZM258 338L303 557H980L1004 338H258ZM836 0V1486H1739V1250H1146V880H1593V648H1146V241H1803V0H836Z" />
<glyph unicode="&#xc7;" horiz-adv-x="1285" d="M88 739Q88 926 145 1068T303 1307T536 1453T820 1502Q927 1502 999 1491T1121 1466T1210 1444L1168 1172Q1149 1184 1111 1203T1007 1238T843 1254Q716 1254 618 1195T464 1025T408 757Q408 600 459 481T611 295T855
227Q922 227 991 242T1114 278T1194 321V62Q1154 46 1102 28T983 -3T826 -16Q594 -16 429 77T176 341T88 739ZM454 -426L473 -265Q487 -272 506 -274T550 -277Q602 -277 636 -242T671 -131Q673 -69 663 -33T638 30L765 34L814 30Q835 9 848 -29T868 -116T875 -211Q873
-295 838 -348T747 -428T625 -454Q596 -454 561 -451T497 -441T454 -426Z" />
<glyph unicode="&#xc8;" horiz-adv-x="1210" d="M167 0V1486H1074V1250H479V877H930V646H479V241H1137V0H167ZM771 1721L632 1607Q600 1618 552 1650T450 1727T350 1818T274 1905L487 2034Q492 2018 519 1984T586 1909T664 1828T733 1759T771 1721Z" />
<glyph unicode="&#xc9;" horiz-adv-x="1210" d="M167 0V1486H1074V1250H479V877H930V646H479V241H1137V0H167ZM596 1607L457 1720Q465 1728 495 1757T564 1826T643 1908T711 1984T744 2033L955 1904Q923 1863 877 1817T780 1727T681 1652T596 1607Z" />
<glyph unicode="&#xca;" horiz-adv-x="1210" d="M167 0V1486H1074V1250H479V877H930V646H479V241H1137V0H167ZM414 1591L255 1681L524 1980H740L1011 1683L850 1591L631 1783L414 1591Z" />
<glyph unicode="&#xcb;" horiz-adv-x="1210" d="M167 0V1486H1074V1250H479V877H930V646H479V241H1137V0H167ZM369 1623Q298 1623 253 1666T208 1779Q208 1852 261 1902T388 1952Q465 1952 506 1909T548 1796Q548 1722 496 1673T369 1623ZM879 1623Q809 1623 764
1666T718 1779Q718 1852 772 1902T898 1952Q976 1952 1017 1909T1058 1796Q1058 1722 1006 1673T879 1623Z" />
<glyph unicode="&#xcc;" horiz-adv-x="695" d="M189 0V1486H505V0H189ZM487 1721L348 1607Q316 1618 268 1650T166 1727T66 1818T-10 1905L203 2034Q208 2018 235 1984T302 1909T380 1828T449 1759T487 1721Z" />
<glyph unicode="&#xcd;" horiz-adv-x="695" d="M189 0V1486H505V0H189ZM312 1607L173 1720Q181 1728 211 1757T280 1826T359 1908T427 1984T460 2033L671 1904Q639 1863 593 1817T496 1727T397 1652T312 1607Z" />
<glyph unicode="&#xce;" horiz-adv-x="695" d="M189 0V1486H505V0H189ZM130 1591L-29 1681L240 1980H456L727 1683L566 1591L347 1783L130 1591Z" />
<glyph unicode="&#xcf;" horiz-adv-x="695" d="M189 0V1486H505V0H189ZM85 1623Q14 1623 -31 1666T-76 1779Q-76 1852 -23 1902T104 1952Q181 1952 222 1909T264 1796Q264 1722 212 1673T85 1623ZM595 1623Q525 1623 480 1666T434 1779Q434 1852 488 1902T614
1952Q692 1952 733 1909T774 1796Q774 1722 722 1673T595 1623Z" />
<glyph unicode="&#xd0;" horiz-adv-x="1493" d="M61 677V875H816V677H61ZM167 0V1486Q189 1486 210 1486T253 1486T295 1486Q337 1486 401 1490T538 1498T679 1502Q1050 1502 1225 1313T1400 783Q1400 529 1311 350T1056 76T656 -16Q560 -14 463 -7T283 0Q264
0 245 0T206 0T167 0ZM481 233Q519 223 574 219T683 216Q800 217 888 273T1025 446T1075 750Q1075 944 1028 1059T887 1224T651 1275Q605 1275 558 1271T481 1261V233Z" />
<glyph unicode="&#xd1;" horiz-adv-x="1547" d="M167 0V1486H457L1014 607L1208 220H1139L1094 719V1486H1380V0H1070L538 852L315 1292H399L451 751V0H167ZM935 1623Q879 1623 838 1643T765 1691T703 1739T637 1760Q601 1760 576 1749T534 1716T501 1660L384
1706Q392 1776 425 1832T510 1922T628 1956Q684 1956 724 1936T797 1888T860 1841T926 1820Q957 1820 982 1830T1026 1862T1059 1920L1178 1872Q1173 1799 1139 1743T1051 1655T935 1623Z" />
<glyph unicode="&#xd2;" horiz-adv-x="1542" d="M766 -16Q552 -20 398 75T164 345T88 752Q93 1009 186 1173T437 1418T795 1502Q1000 1506 1149 1414T1378 1150T1453 745Q1448 488 1359 321T1117 71T766 -16ZM772 214Q939 214 1037 345T1135 755Q1135 901 1097
1017T981 1200T788 1268Q684 1268 598 1216T459 1048T407 740Q407 593 448 474T570 285T772 214ZM927 1721L788 1607Q756 1618 708 1650T606 1727T506 1818T430 1905L643 2034Q648 2018 675 1984T742 1909T820 1828T889 1759T927 1721Z" />
<glyph unicode="&#xd3;" horiz-adv-x="1542" d="M766 -16Q552 -20 398 75T164 345T88 752Q93 1009 186 1173T437 1418T795 1502Q1000 1506 1149 1414T1378 1150T1453 745Q1448 488 1359 321T1117 71T766 -16ZM772 214Q939 214 1037 345T1135 755Q1135 901 1097
1017T981 1200T788 1268Q684 1268 598 1216T459 1048T407 740Q407 593 448 474T570 285T772 214ZM752 1607L613 1720Q621 1728 651 1757T720 1826T799 1908T867 1984T900 2033L1111 1904Q1079 1863 1033 1817T936 1727T837 1652T752 1607Z" />
<glyph unicode="&#xd4;" horiz-adv-x="1542" d="M766 -16Q552 -20 398 75T164 345T88 752Q93 1009 186 1173T437 1418T795 1502Q1000 1506 1149 1414T1378 1150T1453 745Q1448 488 1359 321T1117 71T766 -16ZM772 214Q939 214 1037 345T1135 755Q1135 901 1097
1017T981 1200T788 1268Q684 1268 598 1216T459 1048T407 740Q407 593 448 474T570 285T772 214ZM570 1591L411 1681L680 1980H896L1167 1683L1006 1591L787 1783L570 1591Z" />
<glyph unicode="&#xd5;" horiz-adv-x="1542" d="M766 -16Q552 -20 398 75T164 345T88 752Q93 1009 186 1173T437 1418T795 1502Q1000 1506 1149 1414T1378 1150T1453 745Q1448 488 1359 321T1117 71T766 -16ZM772 214Q939 214 1037 345T1135 755Q1135 901 1097
1017T981 1200T788 1268Q684 1268 598 1216T459 1048T407 740Q407 593 448 474T570 285T772 214ZM942 1623Q886 1623 845 1643T772 1691T710 1739T644 1760Q608 1760 583 1749T541 1716T508 1660L391 1706Q399 1776 432 1832T517 1922T635 1956Q691 1956 731 1936T804
1888T867 1841T933 1820Q964 1820 989 1830T1033 1862T1066 1920L1185 1872Q1180 1799 1146 1743T1058 1655T942 1623Z" />
<glyph unicode="&#xd6;" horiz-adv-x="1542" d="M766 -16Q552 -20 398 75T164 345T88 752Q93 1009 186 1173T437 1418T795 1502Q1000 1506 1149 1414T1378 1150T1453 745Q1448 488 1359 321T1117 71T766 -16ZM772 214Q939 214 1037 345T1135 755Q1135 901 1097
1017T981 1200T788 1268Q684 1268 598 1216T459 1048T407 740Q407 593 448 474T570 285T772 214ZM525 1623Q454 1623 409 1666T364 1779Q364 1852 417 1902T544 1952Q621 1952 662 1909T704 1796Q704 1722 652 1673T525 1623ZM1035 1623Q965 1623 920 1666T874
1779Q874 1852 928 1902T1054 1952Q1132 1952 1173 1909T1214 1796Q1214 1722 1162 1673T1035 1623Z" />
<glyph unicode="&#xd7;" horiz-adv-x="1357" d="M177 400L531 756L177 1125L338 1282L680 909L1021 1282L1182 1125L828 758L1181 400L1020 240L678 601L338 240L177 400Z" />
<glyph unicode="&#xd8;" horiz-adv-x="1554" d="M358 -216L235 -187L1200 1741L1323 1711L358 -216ZM771 -16Q557 -20 404 75T170 345T93 751Q98 1009 191 1173T442 1418T800 1502Q1006 1506 1155 1414T1383 1150T1459 745Q1454 487 1365 320T1123 71T771 -16ZM777
216Q943 216 1040 346T1138 755Q1138 901 1100 1016T986 1199T793 1266Q690 1266 604 1214T466 1047T414 740Q414 594 454 475T575 286T777 216Z" />
<glyph unicode="&#xd9;" horiz-adv-x="1477" d="M746 -16Q526 -16 393 62T201 284T141 623L144 1486H456L452 668Q452 493 485 399T584 268T745 231Q836 231 899 268T994 401T1027 668V1486H1336V618Q1336 317 1193 151T746 -16ZM881 1721L742 1607Q710 1618 662
1650T560 1727T460 1818T384 1905L597 2034Q602 2018 629 1984T696 1909T774 1828T843 1759T881 1721Z" />
<glyph unicode="&#xda;" horiz-adv-x="1477" d="M746 -16Q526 -16 393 62T201 284T141 623L144 1486H456L452 668Q452 493 485 399T584 268T745 231Q836 231 899 268T994 401T1027 668V1486H1336V618Q1336 317 1193 151T746 -16ZM706 1607L567 1720Q575 1728 605
1757T674 1826T753 1908T821 1984T854 2033L1065 1904Q1033 1863 987 1817T890 1727T791 1652T706 1607Z" />
<glyph unicode="&#xdb;" horiz-adv-x="1477" d="M746 -16Q526 -16 393 62T201 284T141 623L144 1486H456L452 668Q452 493 485 399T584 268T745 231Q836 231 899 268T994 401T1027 668V1486H1336V618Q1336 317 1193 151T746 -16ZM524 1591L365 1681L634 1980H850L1121
1683L960 1591L741 1783L524 1591Z" />
<glyph unicode="&#xdc;" horiz-adv-x="1477" d="M746 -16Q526 -16 393 62T201 284T141 623L144 1486H456L452 668Q452 493 485 399T584 268T745 231Q836 231 899 268T994 401T1027 668V1486H1336V618Q1336 317 1193 151T746 -16ZM479 1623Q408 1623 363 1666T318
1779Q318 1852 371 1902T498 1952Q575 1952 616 1909T658 1796Q658 1722 606 1673T479 1623ZM989 1623Q919 1623 874 1666T828 1779Q828 1852 882 1902T1008 1952Q1086 1952 1127 1909T1168 1796Q1168 1722 1116 1673T989 1623Z" />
<glyph unicode="&#xdd;" horiz-adv-x="1246" d="M464 0V609L498 479L-25 1486H315L578 941L656 741H612L678 941L941 1486H1272L749 477L783 608V0H464ZM597 1607L458 1720Q466 1728 496 1757T565 1826T644 1908T712 1984T745 2033L956 1904Q924 1863 878 1817T781
1727T682 1652T597 1607Z" />
<glyph unicode="&#xde;" horiz-adv-x="1303" d="M681 249Q605 249 551 252T468 258V483Q511 475 549 474T624 472Q706 472 775 496T886 585T928 773Q928 901 852 966T622 1026Q581 1026 542 1022T467 1007L425 1238Q487 1241 562 1247T715 1253Q963 1253 1099
1135T1236 782Q1236 532 1094 391T681 249ZM167 0V1486H481V0H167Z" />
<glyph unicode="&#xdf;" horiz-adv-x="1338" d="M178 0V954Q178 1164 258 1293T474 1482T775 1542Q903 1542 996 1506T1141 1404T1193 1252Q1193 1184 1171 1137T1115 1055T1048 993T991 937T968 871Q968 825 1001 788T1083 711T1181 621T1263 503T1296 340Q1296
236 1261 167T1166 58T1032 1T880 -16Q803 -16 739 -5T649 18V232Q668 222 715 206T826 190Q861 190 897 201T957 242T981 326Q981 384 952 428T881 511T796 593T725 691T696 825Q696 893 725 939T793 1022T861 1103T891 1210Q891 1273 850 1308T731 1343Q657 1343
602 1305T516 1177T485 928V0H178ZM44 905V1088L205 1123L234 1013L183 905H44Z" />
<glyph unicode="&#xe0;" horiz-adv-x="1184" d="M442 -16Q336 -16 256 27T132 147T87 326Q87 428 142 501T293 615Q358 642 435 657T590 678T735 684L786 621L735 523Q699 523 654 518T568 504T498 482Q459 464 429 434T398 342Q398 261 443 223T559 184Q596 184
632 194T697 217T735 243L788 180L751 94Q706 54 628 19T442 -16ZM1040 0H751V166H735V766Q735 851 690 877T561 904Q498 904 430 893T300 864T198 825L132 1017Q166 1037 238 1064T403 1111T590 1132Q744 1132 843 1096T991 974T1040 736V0ZM692 1395L575 1269Q543
1285 488 1327T371 1425T257 1541T179 1650L360 1812Q402 1746 460 1670T579 1521T692 1395Z" />
<glyph unicode="&#xe1;" horiz-adv-x="1184" d="M442 -16Q336 -16 256 27T132 147T87 326Q87 428 142 501T293 615Q358 642 435 657T590 678T735 684L786 621L735 523Q699 523 654 518T568 504T498 482Q459 464 429 434T398 342Q398 261 443 223T559 184Q596 184
632 194T697 217T735 243L788 180L751 94Q706 54 628 19T442 -16ZM1040 0H751V166H735V766Q735 851 690 877T561 904Q498 904 430 893T300 864T198 825L132 1017Q166 1037 238 1064T403 1111T590 1132Q744 1132 843 1096T991 974T1040 736V0ZM520 1269L381 1393Q432
1445 490 1514T604 1659T708 1808L907 1650Q889 1613 853 1567T770 1474T675 1384T586 1311T520 1269Z" />
<glyph unicode="&#xe2;" horiz-adv-x="1184" d="M442 -16Q336 -16 256 27T132 147T87 326Q87 428 142 501T293 615Q358 642 435 657T590 678T735 684L786 621L735 523Q699 523 654 518T568 504T498 482Q459 464 429 434T398 342Q398 261 443 223T559 184Q596 184
632 194T697 217T735 243L788 180L751 94Q706 54 628 19T442 -16ZM1040 0H751V166H735V766Q735 851 690 877T561 904Q498 904 430 893T300 864T198 825L132 1017Q166 1037 238 1064T403 1111T590 1132Q744 1132 843 1096T991 974T1040 736V0ZM332 1236L186 1319L476
1671H679L964 1319L814 1236L575 1448L332 1236Z" />
<glyph unicode="&#xe3;" horiz-adv-x="1184" d="M442 -16Q336 -16 256 27T132 147T87 326Q87 428 142 501T293 615Q358 642 435 657T590 678T735 684L786 621L735 523Q699 523 654 518T568 504T498 482Q459 464 429 434T398 342Q398 261 443 223T559 184Q596 184
632 194T697 217T735 243L788 180L751 94Q706 54 628 19T442 -16ZM1040 0H751V166H735V766Q735 851 690 877T561 904Q498 904 430 893T300 864T198 825L132 1017Q166 1037 238 1064T403 1111T590 1132Q744 1132 843 1096T991 974T1040 736V0ZM711 1280Q657 1280
619 1301T551 1351T492 1401T429 1423Q395 1423 372 1412T332 1379T300 1323L185 1369Q193 1440 228 1497T316 1588T435 1623Q489 1623 527 1602T595 1552T653 1503T715 1481Q745 1481 768 1491T810 1523T843 1580L960 1532Q954 1459 918 1403T828 1313T711 1280Z"
/>
<glyph unicode="&#xe4;" horiz-adv-x="1184" d="M442 -16Q336 -16 256 27T132 147T87 326Q87 428 142 501T293 615Q358 642 435 657T590 678T735 684L786 621L735 523Q699 523 654 518T568 504T498 482Q459 464 429 434T398 342Q398 261 443 223T559 184Q596 184
632 194T697 217T735 243L788 180L751 94Q706 54 628 19T442 -16ZM1040 0H751V166H735V766Q735 851 690 877T561 904Q498 904 430 893T300 864T198 825L132 1017Q166 1037 238 1064T403 1111T590 1132Q744 1132 843 1096T991 974T1040 736V0ZM326 1285Q255 1285
209 1330T163 1448Q163 1522 218 1574T345 1627Q424 1627 465 1581T506 1465Q506 1389 454 1337T326 1285ZM808 1285Q738 1285 692 1330T646 1448Q646 1522 700 1574T828 1627Q906 1627 947 1581T989 1465Q989 1389 937 1337T808 1285Z" />
<glyph unicode="&#xe5;" horiz-adv-x="1184" d="M442 -16Q336 -16 256 27T132 147T87 326Q87 428 142 501T293 615Q358 642 435 657T590 678T735 684L786 621L735 523Q699 523 654 518T568 504T498 482Q459 464 429 434T398 342Q398 261 443 223T559 184Q596 184
632 194T697 217T735 243L788 180L751 94Q706 54 628 19T442 -16ZM1040 0H751V166H735V766Q735 851 690 877T561 904Q498 904 430 893T300 864T198 825L132 1017Q166 1037 238 1064T403 1111T590 1132Q744 1132 843 1096T991 974T1040 736V0ZM571 1278Q414 1278
324 1357T237 1571Q238 1672 288 1733T417 1821T578 1849Q733 1849 824 1777T913 1567Q912 1466 864 1403T738 1309T571 1278ZM573 1427Q645 1426 688 1456T732 1564Q732 1631 687 1667T573 1704Q533 1705 498 1693T440 1651T418 1570Q418 1507 461 1467T573 1427Z"
/>
<glyph unicode="&#xe6;" horiz-adv-x="1798" d="M1263 -16Q1007 -16 871 134T734 560Q734 722 795 850T976 1052T1266 1128Q1353 1129 1432 1107T1573 1032T1671 896T1710 688Q1710 628 1708 577T1699 488H898L917 652H1427Q1432 733 1419 795T1367 891T1257 926Q1188
926 1137 888T1059 757T1035 502Q1039 391 1077 327T1182 235T1337 207Q1384 207 1441 215T1549 236T1627 265L1676 96Q1640 66 1576 41T1431 0T1263 -16ZM91 316Q91 419 149 495T301 613Q397 654 514 669T734 684L784 621L739 523Q668 523 605 512T502 482Q462
464 431 434T400 338Q400 260 444 222T558 184Q602 184 647 198T730 238T787 296L848 251L871 175Q791 74 680 29T448 -16Q347 -16 266 23T138 136T91 316ZM206 828L139 1017Q160 1029 228 1056T396 1108T608 1132Q744 1132 831 1098T961 976T1003 725V582L734
581V762Q734 820 712 852T644 896T528 909Q471 909 406 896T287 863T206 828Z" />
<glyph unicode="&#xe7;" horiz-adv-x="994" d="M73 545Q73 709 133 841T315 1050T627 1128Q736 1128 815 1110T922 1073L884 840Q847 863 792 877T654 891Q589 891 527 861T423 762T378 577Q375 452 411 373T511 256T653 218Q729 218 794 234T895 268L940 81Q892
33 796 9T592 -16Q419 -16 304 57T131 258T73 545ZM198 -426L217 -265Q231 -272 250 -274T294 -277Q346 -277 380 -242T415 -131Q417 -69 407 -33T382 30L509 34L558 30Q579 9 592 -29T612 -116T619 -211Q617 -295 582 -348T491 -428T369 -454Q340 -454 305 -451T241
-441T198 -426Z" />
<glyph unicode="&#xe8;" horiz-adv-x="1159" d="M621 -16Q364 -16 227 137T90 560Q90 722 152 850T334 1052T625 1128Q712 1129 791 1106T932 1032T1031 896T1070 689Q1070 628 1068 576T1059 487H254L274 652H786Q791 733 778 794T725 890T615 925Q546 925 495
887T416 757T392 502Q396 393 434 328T539 234T694 205Q742 205 799 213T907 234T985 262L1036 96Q999 66 935 41T789 0T621 -16ZM736 1396L619 1270Q587 1286 532 1328T415 1426T301 1542T223 1651L404 1813Q446 1747 504 1671T623 1522T736 1396Z" />
<glyph unicode="&#xe9;" horiz-adv-x="1159" d="M621 -16Q364 -16 227 137T90 560Q90 722 152 850T334 1052T625 1128Q712 1129 791 1106T932 1032T1031 896T1070 689Q1070 628 1068 576T1059 487H254L274 652H786Q791 733 778 794T725 890T615 925Q546 925 495
887T416 757T392 502Q396 393 434 328T539 234T694 205Q742 205 799 213T907 234T985 262L1036 96Q999 66 935 41T789 0T621 -16ZM564 1270L425 1394Q476 1446 534 1515T648 1660T752 1809L951 1651Q933 1614 897 1568T814 1475T719 1385T630 1312T564 1270Z" />
<glyph unicode="&#xea;" horiz-adv-x="1159" d="M621 -16Q364 -16 227 137T90 560Q90 722 152 850T334 1052T625 1128Q712 1129 791 1106T932 1032T1031 896T1070 689Q1070 628 1068 576T1059 487H254L274 652H786Q791 733 778 794T725 890T615 925Q546 925 495
887T416 757T392 502Q396 393 434 328T539 234T694 205Q742 205 799 213T907 234T985 262L1036 96Q999 66 935 41T789 0T621 -16ZM376 1237L230 1320L520 1672H723L1008 1320L858 1237L619 1449L376 1237Z" />
<glyph unicode="&#xeb;" horiz-adv-x="1159" d="M621 -16Q364 -16 227 137T90 560Q90 722 152 850T334 1052T625 1128Q712 1129 791 1106T932 1032T1031 896T1070 689Q1070 628 1068 576T1059 487H254L274 652H786Q791 733 778 794T725 890T615 925Q546 925 495
887T416 757T392 502Q396 393 434 328T539 234T694 205Q742 205 799 213T907 234T985 262L1036 96Q999 66 935 41T789 0T621 -16ZM370 1286Q299 1286 253 1331T207 1449Q207 1523 262 1575T389 1628Q468 1628 509 1582T550 1466Q550 1390 498 1338T370 1286ZM852
1286Q782 1286 736 1331T690 1449Q690 1523 744 1575T872 1628Q950 1628 991 1582T1033 1466Q1033 1390 981 1338T852 1286Z" />
<glyph unicode="&#xec;" horiz-adv-x="629" d="M162 0V1113H467V0H162ZM430 1395L313 1269Q281 1285 226 1327T109 1425T-5 1541T-83 1650L98 1812Q140 1746 198 1670T317 1521T430 1395Z" />
<glyph unicode="&#xed;" horiz-adv-x="629" d="M162 0V1113H467V0H162ZM258 1269L119 1393Q170 1445 228 1514T342 1659T446 1808L645 1650Q627 1613 591 1567T508 1474T413 1384T324 1311T258 1269Z" />
<glyph unicode="&#xee;" horiz-adv-x="629" d="M162 0V1113H467V0H162ZM70 1236L-76 1319L214 1671H417L702 1319L552 1236L313 1448L70 1236Z" />
<glyph unicode="&#xef;" horiz-adv-x="629" d="M162 0V1113H467V0H162ZM64 1285Q-7 1285 -53 1330T-99 1448Q-99 1522 -44 1574T83 1627Q162 1627 203 1581T244 1465Q244 1389 192 1337T64 1285ZM546 1285Q476 1285 430 1330T384 1448Q384 1522 438 1574T566 1627Q644
1627 685 1581T727 1465Q727 1389 675 1337T546 1285Z" />
<glyph unicode="&#xf0;" horiz-adv-x="1243" d="M627 -26Q463 -27 341 43T153 241T86 539Q86 712 148 844T324 1050T599 1123Q688 1123 751 1094T854 1020T908 928L825 964Q800 1107 716 1223T515 1423Q505 1430 488 1443T458 1464Q403 1502 341 1535T214 1589L269
1752Q364 1723 437 1693T583 1618Q597 1610 621 1597T657 1575Q818 1479 933 1332T1110 1004T1173 629Q1173 404 1100 259T904 45T627 -26ZM633 186Q698 186 750 228T832 355T863 564Q863 600 863 644T862 733T858 811Q841 849 785 883T639 918Q525 918 464 817T403
533Q403 367 464 277T633 186ZM436 1238L294 1341L463 1547L486 1578Q503 1594 533 1631T593 1709T645 1780T667 1809L812 1705Q812 1705 791 1679T740 1615T678 1542T628 1487L604 1452L436 1238Z" />
<glyph unicode="&#xf1;" horiz-adv-x="1292" d="M156 0V1113H433L438 988Q476 1020 535 1052T665 1107T810 1130Q984 1134 1066 1038T1148 699V0H842V656Q842 786 808 838T675 886Q645 885 608 876T532 848T460 802V0H156ZM796 1280Q742 1280 704 1301T636 1351T577
1401T514 1423Q480 1423 457 1412T417 1379T385 1323L270 1369Q278 1440 313 1497T401 1588T520 1623Q574 1623 612 1602T680 1552T738 1503T800 1481Q830 1481 853 1491T895 1523T928 1580L1045 1532Q1039 1459 1003 1403T913 1313T796 1280Z" />
<glyph unicode="&#xf2;" horiz-adv-x="1228" d="M604 -16Q458 -16 356 31T192 162T101 352T74 580Q77 758 148 880T343 1065T624 1128Q820 1128 937 1046T1105 829T1153 534Q1151 355 1080 233T886 47T604 -16ZM612 197Q731 196 785 286T839 547Q839 648 817 731T747
864T618 915Q498 916 444 828T390 572Q390 470 412 385T482 248T612 197ZM739 1395L622 1269Q590 1285 535 1327T418 1425T304 1541T226 1650L407 1812Q449 1746 507 1670T626 1521T739 1395Z" />
<glyph unicode="&#xf3;" horiz-adv-x="1228" d="M604 -16Q458 -16 356 31T192 162T101 352T74 580Q77 758 148 880T343 1065T624 1128Q820 1128 937 1046T1105 829T1153 534Q1151 355 1080 233T886 47T604 -16ZM612 197Q731 196 785 286T839 547Q839 648 817 731T747
864T618 915Q498 916 444 828T390 572Q390 470 412 385T482 248T612 197ZM567 1269L428 1393Q479 1445 537 1514T651 1659T755 1808L954 1650Q936 1613 900 1567T817 1474T722 1384T633 1311T567 1269Z" />
<glyph unicode="&#xf4;" horiz-adv-x="1228" d="M604 -16Q458 -16 356 31T192 162T101 352T74 580Q77 758 148 880T343 1065T624 1128Q820 1128 937 1046T1105 829T1153 534Q1151 355 1080 233T886 47T604 -16ZM612 197Q731 196 785 286T839 547Q839 648 817 731T747
864T618 915Q498 916 444 828T390 572Q390 470 412 385T482 248T612 197ZM379 1236L233 1319L523 1671H726L1011 1319L861 1236L622 1448L379 1236Z" />
<glyph unicode="&#xf5;" horiz-adv-x="1228" d="M604 -16Q458 -16 356 31T192 162T101 352T74 580Q77 758 148 880T343 1065T624 1128Q820 1128 937 1046T1105 829T1153 534Q1151 355 1080 233T886 47T604 -16ZM612 197Q731 196 785 286T839 547Q839 648 817 731T747
864T618 915Q498 916 444 828T390 572Q390 470 412 385T482 248T612 197ZM758 1280Q704 1280 666 1301T598 1351T539 1401T476 1423Q442 1423 419 1412T379 1379T347 1323L232 1369Q240 1440 275 1497T363 1588T482 1623Q536 1623 574 1602T642 1552T700 1503T762
1481Q792 1481 815 1491T857 1523T890 1580L1007 1532Q1001 1459 965 1403T875 1313T758 1280Z" />
<glyph unicode="&#xf6;" horiz-adv-x="1228" d="M604 -16Q458 -16 356 31T192 162T101 352T74 580Q77 758 148 880T343 1065T624 1128Q820 1128 937 1046T1105 829T1153 534Q1151 355 1080 233T886 47T604 -16ZM612 197Q731 196 785 286T839 547Q839 648 817 731T747
864T618 915Q498 916 444 828T390 572Q390 470 412 385T482 248T612 197ZM373 1285Q302 1285 256 1330T210 1448Q210 1522 265 1574T392 1627Q471 1627 512 1581T553 1465Q553 1389 501 1337T373 1285ZM855 1285Q785 1285 739 1330T693 1448Q693 1522 747 1574T875
1627Q953 1627 994 1581T1036 1465Q1036 1389 984 1337T855 1285Z" />
<glyph unicode="&#xf7;" horiz-adv-x="1375" d="M696 1004Q619 1004 569 1054T518 1182Q519 1235 546 1279T617 1351T715 1378Q800 1378 845 1327T890 1200Q890 1147 864 1102T794 1031T696 1004ZM694 142Q617 142 567 192T516 320Q516 372 543 416T616 488T714
515Q797 515 843 464T889 338Q889 284 863 240T793 169T694 142ZM200 642V867H1174V642H200Z" />
<glyph unicode="&#xf8;" horiz-adv-x="1259" d="M297 -187L836 1336L962 1305L423 -216L297 -187ZM618 -16Q472 -16 370 31T206 162T115 352T88 580Q91 758 162 880T357 1065T638 1128Q834 1128 951 1046T1119 829T1167 534Q1165 355 1094 233T900 47T618 -16ZM626
197Q746 196 803 286T861 547Q861 648 837 731T763 864T632 915Q512 916 455 828T397 572Q397 470 421 385T495 248T626 197Z" />
<glyph unicode="&#xf9;" horiz-adv-x="1262" d="M492 -16Q376 -16 305 18T196 117T146 268T133 460V1114H437V456Q437 351 455 299T510 230T607 213Q643 213 681 223T751 247T800 275V1114H1105V-16H911Q872 -16 851 -4T829 52V126L835 97Q794 65 736 40T613 -1T492
-16ZM747 1395L630 1269Q598 1285 543 1327T426 1425T312 1541T234 1650L415 1812Q457 1746 515 1670T634 1521T747 1395Z" />
<glyph unicode="&#xfa;" horiz-adv-x="1262" d="M492 -16Q376 -16 305 18T196 117T146 268T133 460V1114H437V456Q437 351 455 299T510 230T607 213Q643 213 681 223T751 247T800 275V1114H1105V-16H911Q872 -16 851 -4T829 52V126L835 97Q794 65 736 40T613 -1T492
-16ZM575 1269L436 1393Q487 1445 545 1514T659 1659T763 1808L962 1650Q944 1613 908 1567T825 1474T730 1384T641 1311T575 1269Z" />
<glyph unicode="&#xfb;" horiz-adv-x="1262" d="M492 -16Q376 -16 305 18T196 117T146 268T133 460V1114H437V456Q437 351 455 299T510 230T607 213Q643 213 681 223T751 247T800 275V1114H1105V-16H911Q872 -16 851 -4T829 52V126L835 97Q794 65 736 40T613 -1T492
-16ZM387 1236L241 1319L531 1671H734L1019 1319L869 1236L630 1448L387 1236Z" />
<glyph unicode="&#xfc;" horiz-adv-x="1262" d="M492 -16Q376 -16 305 18T196 117T146 268T133 460V1114H437V456Q437 351 455 299T510 230T607 213Q643 213 681 223T751 247T800 275V1114H1105V-16H911Q872 -16 851 -4T829 52V126L835 97Q794 65 736 40T613 -1T492
-16ZM381 1285Q310 1285 264 1330T218 1448Q218 1522 273 1574T400 1627Q479 1627 520 1581T561 1465Q561 1389 509 1337T381 1285ZM863 1285Q793 1285 747 1330T701 1448Q701 1522 755 1574T883 1627Q961 1627 1002 1581T1044 1465Q1044 1389 992 1337T863 1285Z"
/>
<glyph unicode="&#xfd;" horiz-adv-x="1146" d="M127 -478V-238Q144 -244 180 -250T238 -256Q286 -256 343 -239T451 -161T527 28L541 0H409L19 1114H344L535 469L625 127H583L664 469L820 1114H1143L785 -29Q721 -229 629 -332T429 -470Q399 -482 353 -489T271
-496Q256 -496 224 -493T163 -486T127 -478ZM545 1269L406 1393Q457 1445 515 1514T629 1659T733 1808L932 1650Q914 1613 878 1567T795 1474T700 1384T611 1311T545 1269Z" />
<glyph unicode="&#xfe;" horiz-adv-x="1289" d="M162 62L462 13L470 -166V-496H162V62ZM157 1622H459V1198L450 972L459 966V167L157 62V1622ZM624 -19Q547 -19 470 -10T327 12T215 39T157 62L459 227Q479 208 523 199T631 190Q703 190 760 234T852 364T887 573Q888
753 828 826T664 899Q598 899 544 876T459 829L422 984Q445 1008 486 1042T595 1102T762 1128Q881 1128 980 1071T1140 896T1201 598Q1201 412 1130 274T929 58T624 -19Z" />
<glyph unicode="&#xff;" horiz-adv-x="1146" d="M127 -478V-238Q144 -244 180 -250T238 -256Q286 -256 343 -239T451 -161T527 28L541 0H409L19 1114H344L535 469L625 127H583L664 469L820 1114H1143L785 -29Q721 -229 629 -332T429 -470Q399 -482 353 -489T271
-496Q256 -496 224 -493T163 -486T127 -478ZM351 1285Q280 1285 234 1330T188 1448Q188 1522 243 1574T370 1627Q449 1627 490 1581T531 1465Q531 1389 479 1337T351 1285ZM833 1285Q763 1285 717 1330T671 1448Q671 1522 725 1574T853 1627Q931 1627 972 1581T1014
1465Q1014 1389 962 1337T833 1285Z" />
<glyph unicode="&#x2013;" horiz-adv-x="1544" d="M180 538V772H1364V538H180Z" />
<glyph unicode="&#x2014;" horiz-adv-x="2220" d="M180 572V806H2040V572H180Z" />
<glyph unicode="&#x2018;" horiz-adv-x="569" d="M294 911Q246 929 202 978T130 1102T102 1272Q102 1394 138 1483T222 1627T302 1705L431 1625V1596Q409 1574 394 1534T369 1443T360 1343Q360 1257 392 1197T456 1120V1049L294 911Z" />
<glyph unicode="&#x2019;" horiz-adv-x="569" d="M261 911L133 992V1021Q152 1043 166 1084T189 1174T197 1274Q197 1362 167 1423T108 1501V1571L283 1701Q326 1684 365 1640T429 1527T454 1362Q454 1232 418 1140T337 991T261 911Z" />
<glyph unicode="&#x201a;" horiz-adv-x="569" d="M261 -528L133 -447V-418Q152 -396 166 -355T189 -265T197 -165Q197 -77 167 -16T108 62V132L283 262Q326 245 365 201T429 88T454 -77Q454 -207 418 -299T337 -448T261 -528Z" />
<glyph unicode="&#x201c;" horiz-adv-x="1155" d="M330 911Q282 929 238 978T166 1102T138 1272Q138 1394 174 1483T258 1627T338 1705L467 1625V1596Q445 1574 430 1534T405 1443T396 1343Q396 1257 428 1197T492 1120V1049L330 911ZM863 911Q815 929 771 978T699
1102T671 1272Q671 1394 707 1483T791 1627T871 1705L1000 1625V1596Q978 1574 963 1534T938 1443T929 1343Q929 1257 961 1197T1025 1120V1049L863 911Z" />
<glyph unicode="&#x201d;" horiz-adv-x="1149" d="M276 911L148 992V1021Q167 1043 181 1084T204 1174T212 1274Q212 1362 182 1423T123 1501V1571L298 1701Q341 1684 380 1640T444 1527T469 1362Q469 1232 433 1140T352 991T276 911ZM811 911L683 992V1021Q702
1043 716 1084T739 1174T747 1274Q747 1362 717 1423T658 1501V1571L833 1701Q876 1684 915 1640T979 1527T1004 1362Q1004 1232 968 1140T887 991T811 911Z" />
<glyph unicode="&#x201e;" horiz-adv-x="1097" d="M261 -515L133 -434V-405Q152 -383 166 -342T189 -252T197 -152Q197 -64 167 -3T108 75V145L283 275Q326 258 365 214T429 101T454 -64Q454 -194 418 -286T337 -435T261 -515ZM790 -515L662 -434V-405Q681 -383
695 -342T718 -252T726 -152Q726 -64 696 -3T637 75V145L812 275Q855 258 894 214T958 101T983 -64Q983 -194 947 -286T866 -435T790 -515Z" />
<glyph unicode="&#x2022;" horiz-adv-x="870" d="M426 452Q353 452 296 485T207 576T175 706Q177 778 214 838T313 935T447 972Q556 972 626 900T694 719Q693 648 657 587T559 489T426 452Z" />
<glyph unicode="&#x2039;" horiz-adv-x="1181" d="M225 479V719L866 1130L939 919L448 547V655L939 284L866 73L225 479Z" />
<glyph unicode="&#x203a;" horiz-adv-x="1181" d="M951 479V719L310 1130L237 919L728 547V655L237 284L310 73L951 479Z" />
</font>
</defs>
</svg>
