<?xml version="1.0" standalone="no"?>
<!DOCTYPE svg PUBLIC "-//W3C//DTD SVG 1.1//EN" "http://www.w3.org/Graphics/SVG/1.1/DTD/svg11.dtd">
<svg xmlns="http://www.w3.org/2000/svg">
<defs >
<font id="MerriweatherSans" horiz-adv-x="1164" ><font-face
    font-family="Merriweather Sans"
    units-per-em="2000"
    panose-1="0 0 0 0 0 0 0 0 0 0"
    ascent="1968"
    descent="-546"
    alphabetic="0" />
<glyph unicode=" " horiz-adv-x="360" />
<glyph unicode="!" horiz-adv-x="595" d="M204 503L173 1738H432L406 503H204ZM289 -22Q228 -22 185 22T140 133Q139 182 162 222T223 286T304 310Q377 310 415 264T454 156Q455 106 432 66T372 2T289 -22Z" />
<glyph unicode="&quot;" horiz-adv-x="1247" d="M284 924L249 1646H498L466 924H284ZM783 924L748 1646H997L965 924H783Z" />
<glyph unicode="#" horiz-adv-x="1478" d="M324 0L446 1340H644L518 0H324ZM818 0L938 1340H1136L1010 0H818ZM1318 856H194V1012H1318V856ZM1274 342H160V504H1274V342Z" />
<glyph unicode="$" horiz-adv-x="1346" d="M615 1463L618 1720H781L778 1463H615ZM573 -230L576 22H740L737 -230H573ZM651 -16Q554 -16 468 -2T319 33T230 70L279 261Q317 239 374 218T499 184T637 170Q774 170 846 216T918 366Q918 436 882 483T775 573T596
666Q505 711 420 774T279 922T224 1117Q224 1225 266 1298T381 1417T541 1482T723 1502Q859 1502 948 1476T1076 1423L1030 1238Q979 1270 911 1295T723 1321Q650 1321 588 1302T488 1244T450 1144Q450 1075 478 1029T571 942T739 847Q814 808 887 765T1019 668T1114
547T1150 390Q1150 254 1087 164T911 29T651 -16Z" />
<glyph unicode="%" horiz-adv-x="1955" d="M430 643Q318 642 240 697T120 846T79 1049Q79 1182 133 1274T274 1414T460 1465Q583 1468 661 1414T775 1266T812 1057Q812 924 758 833T617 693T430 643ZM565 0L1189 1494H1384L760 0H565ZM444 794Q526 794 569 862T613
1049Q613 1169 570 1241T448 1314Q366 1314 322 1245T278 1057Q278 944 321 869T444 794ZM1495 43Q1382 41 1304 96T1184 245T1143 449Q1143 581 1197 673T1338 814T1525 865Q1648 868 1725 813T1839 665T1876 457Q1876 324 1823 233T1682 93T1495 43ZM1509 194Q1591
194 1634 262T1677 449Q1677 569 1635 641T1513 714Q1431 714 1387 646T1342 458Q1342 344 1386 269T1509 194Z" />
<glyph unicode="&amp;" horiz-adv-x="1498" d="M943 207Q956 215 965 223T980 238T992 251Q1036 278 1067 315T1116 403T1134 520Q1134 588 1122 642T1103 715H1303Q1308 690 1318 640T1329 519Q1329 385 1278 290T1133 136Q1127 131 1121 123T1108 106T1093 94Q1030
52 930 18T731 -16Q551 -16 417 29T208 163T134 385Q134 487 184 565T316 700T498 796Q503 798 515 802T541 810T560 816Q653 848 721 892T827 1003T864 1167Q864 1206 845 1248T785 1319T682 1349Q604 1349 547 1305T489 1162Q489 1104 500 1063T535 984T594 898T679
778L711 738Q737 701 784 638T888 502T999 366T1092 262Q1148 210 1195 181T1291 139T1402 119V0Q1382 -6 1353 -11T1284 -16Q1177 -16 1103 21T942 132Q896 179 837 249T717 398T602 548T510 672L483 708Q439 768 391 835T309 982T276 1156Q276 1321 387 1415T685
1510Q802 1510 885 1462T1013 1337T1058 1170Q1058 1074 1033 1001T960 872T844 773T691 692Q682 688 662 682T623 670T593 660Q522 630 467 590T382 501T351 393Q351 331 385 276T499 187T713 153Q788 153 839 169T943 207Z" />
<glyph unicode="&apos;" horiz-adv-x="748" d="M284 924L249 1646H498L466 924H284Z" />
<glyph unicode="(" horiz-adv-x="792" d="M559 -327Q534 -311 482 -263T368 -132T250 70T156 347T119 705Q119 875 155 1020T246 1283T363 1488T478 1627T559 1696L713 1617Q686 1596 627 1529T504 1349T392 1074T339 703Q335 530 363 389T437 139T536 -48T636
-176T713 -248L559 -327Z" />
<glyph unicode=")" horiz-adv-x="792" d="M233 1721Q258 1705 310 1657T424 1526T542 1324T636 1047T673 689Q673 519 637 374T546 111T429 -94T314 -233T233 -302L79 -223Q106 -202 165 -135T288 45T400 320T453 691Q457 864 429 1005T355 1255T256 1442T156
1570T79 1642L233 1721Z" />
<glyph unicode="*" horiz-adv-x="1204" d="M511 624L523 886L559 1054L433 933L218 788L120 955L350 1079L513 1129Q510 1131 487 1138T433 1153T378 1169T348 1177L116 1295L211 1464L429 1319L557 1206Q557 1209 551 1232T538 1286T524 1341T517 1371L498 1635H692L679
1375L644 1208Q646 1210 664 1227T704 1266T745 1305T767 1325L987 1470L1082 1305L852 1185L689 1131L852 1083L1088 969L988 796L774 939L644 1052Q645 1049 650 1025T663 971T676 916T683 886L706 624H511Z" />
<glyph unicode="+" horiz-adv-x="1362" d="M587 274V500L595 671L433 663H221V847H433L595 838L587 1009V1229H773V1009L765 838L905 847H1141V663H905L765 671L773 500V274H587Z" />
<glyph unicode="," horiz-adv-x="604" d="M152 -398V-374Q204 -346 240 -276T276 -124Q276 -82 259 -37T214 40T157 75V140L307 269Q374 244 414 191T473 74T492 -47Q492 -154 456 -245T361 -399T230 -489L152 -398Z" />
<glyph unicode="-" horiz-adv-x="1190" d="M180 560V746H1010V560H180Z" />
<glyph unicode="." horiz-adv-x="595" d="M290 -22Q230 -22 186 22T140 133Q139 182 162 222T224 286T304 310Q377 310 415 264T454 156Q456 106 433 66T372 2T290 -22Z" />
<glyph unicode="/" horiz-adv-x="902" d="M72 -354L628 1562H830L274 -354H72Z" />
<glyph unicode="0" horiz-adv-x="1364" d="M675 -16Q528 -16 425 48T257 221T165 471T138 765Q141 992 215 1158T414 1416T699 1507Q849 1507 950 1448T1113 1286T1200 1047T1225 757Q1223 527 1154 353T962 82T675 -16ZM682 194Q832 191 907 331T982 745Q982
905 951 1029T855 1224T686 1296Q538 1296 461 1160T383 773Q383 618 415 487T513 277T682 194Z" />
<glyph unicode="1" horiz-adv-x="894" d="M356 0V1228Q299 1213 246 1200T136 1176L110 1314Q158 1328 214 1352T325 1404T423 1459T488 1506L594 1488V0H356Z" />
<glyph unicode="2" horiz-adv-x="1235" d="M160 0L125 118Q218 180 315 261T500 435T658 628T768 831T809 1031Q809 1165 743 1236T557 1307Q455 1307 368 1266T227 1168L130 1307Q169 1348 234 1392T391 1467T595 1498Q754 1498 855 1437T1005 1273T1053 1043Q1053
893 981 739T781 444T486 186L1110 195V0H160Z" />
<glyph unicode="3" horiz-adv-x="1124" d="M145 4L143 161Q184 154 226 149T307 144Q448 144 555 179T723 278T783 424Q783 507 750 569T642 664T448 688L351 664L306 820Q357 830 405 845T495 878Q596 920 653 985T712 1130Q714 1234 649 1278T487 1322Q381 1322
308 1289T182 1219L97 1353Q134 1384 197 1419T342 1479T509 1504Q631 1504 729 1465T884 1349T942 1160Q942 1065 896 988T774 855T609 769V798Q744 800 836 748T975 614T1022 438Q1022 318 942 214T713 45T358 -20Q300 -20 247 -13T145 4Z" />
<glyph unicode="4" horiz-adv-x="1350" d="M164 292L108 399Q149 482 186 562T257 721T325 877T391 1032T458 1188T529 1346T606 1510H681L833 1421Q795 1349 762 1282T699 1148T640 1017T581 887T517 753T446 613L362 469H1262V292H164ZM806 0V483L828 963H1036V0H806Z" />
<glyph unicode="5" horiz-adv-x="1192" d="M302 -22Q278 -22 242 -20T180 -10V146Q195 146 212 145T244 144Q409 144 538 192T740 323T814 508Q814 648 741 709T502 770Q444 770 376 757T234 720L186 750L242 1486H1008L986 1288H418L380 912Q443 926 500 934T608
942Q824 942 936 833T1048 522Q1048 424 1000 328T856 152T622 26T302 -22Z" />
<glyph unicode="6" horiz-adv-x="1347" d="M150 560Q150 721 199 861T331 1118T521 1323T742 1467T968 1544L1029 1398Q891 1361 777 1285T580 1106T451 887T401 655Q397 520 420 404T508 216T689 145Q780 145 840 193T929 318T959 484Q959 603 929 670T849 764T745
791Q687 791 643 776T577 747L518 884Q536 902 575 921T669 955T794 969Q922 969 1011 909T1146 750T1193 532Q1193 426 1161 328T1062 152T896 29T661 -16Q501 -16 387 63T211 273T150 560Z" />
<glyph unicode="7" horiz-adv-x="1220" d="M337 0Q388 108 436 216T531 434T621 652T707 869T790 1083T870 1294L139 1296L140 1487H1075L1126 1419L600 0H337Z" />
<glyph unicode="8" horiz-adv-x="1288" d="M654 -16Q557 -16 465 5T298 71T180 189T136 368Q136 440 171 516T284 663T490 786L616 690Q541 664 483 619T390 513T356 384Q356 309 388 256T488 173T660 144Q726 144 786 168T884 239T922 356Q922 426 883 477T778
571T635 652T479 734T336 834T232 965T192 1142Q192 1261 254 1342T420 1466T654 1508Q785 1508 883 1465T1037 1345T1092 1166Q1092 1092 1060 1012T957 861T776 748L658 846Q772 882 824 966T880 1140Q885 1233 822 1290T646 1348Q546 1348 476 1297T406 1156Q406
1084 446 1028T552 925T698 835T856 748T1002 651T1110 534T1152 384Q1153 248 1085 160T903 28T654 -16Z" />
<glyph unicode="9" horiz-adv-x="1371" d="M165 970Q165 1128 227 1249T408 1438T696 1507Q862 1507 974 1428T1143 1218T1200 930Q1200 760 1149 611T1012 338T816 120T589 -34T359 -116L286 24Q436 62 558 150T767 356T903 598T954 834Q958 979 932 1093T842
1275T664 1342Q583 1342 523 1299T430 1188T397 1043Q397 866 463 778T629 689Q698 689 732 701T794 727L845 596Q821 569 753 540T569 511Q440 511 350 576T212 745T165 970Z" />
<glyph unicode=":" horiz-adv-x="595" d="M290 -22Q230 -22 186 22T140 133Q139 182 162 222T224 286T304 310Q377 310 415 264T454 156Q456 106 433 66T372 2T290 -22ZM290 750Q230 750 186 794T140 905Q139 954 162 994T224 1058T304 1082Q377 1082 415 1036T454
928Q456 878 433 838T372 774T290 750Z" />
<glyph unicode=";" horiz-adv-x="595" d="M403 -398V-374Q455 -346 491 -276T527 -124Q527 -82 510 -37T465 40T408 75V140L558 269Q625 244 665 191T724 74T743 -47Q743 -154 707 -245T612 -399T481 -489L403 -398ZM290 750Q230 750 186 794T140 905Q139 954
162 994T224 1058T304 1082Q377 1082 415 1036T454 928Q456 878 433 838T372 774T290 750Z" />
<glyph unicode="&lt;" horiz-adv-x="1338" d="M169 680V830L1110 1272V1060L394 743V767L1110 459V242L169 680Z" />
<glyph unicode="=" horiz-adv-x="1370" d="M238 922V1094H1132V922H238ZM238 418V589H1132V418H238Z" />
<glyph unicode="&gt;" horiz-adv-x="1337" d="M1167 680V830L226 1272V1060L942 743V767L226 459V242L1167 680Z" />
<glyph unicode="?" horiz-adv-x="1040" d="M351 484Q319 525 294 595T265 753Q263 821 301 873T399 968T520 1051T625 1136T678 1238Q718 1414 613 1509T299 1605Q224 1605 181 1598T119 1586V1754Q132 1763 164 1773T243 1790T340 1797Q514 1797 632 1751T817
1627T907 1450T911 1249Q901 1174 867 1118T786 1021T689 945T593 878T519 809T485 725Q478 660 492 608T526 484H351ZM465 -22Q410 -22 367 21T321 129Q320 174 343 212T403 273T481 297Q551 297 588 253T627 150Q629 102 606 63T546 1T465 -22Z" />
<glyph unicode="@" horiz-adv-x="2088" d="M984 -464Q808 -464 655 -411T386 -248T205 26T140 416Q140 663 218 863T435 1208T761 1429T1162 1506Q1382 1506 1550 1426T1813 1189T1908 808Q1908 614 1861 463T1733 208T1552 50T1348 -4Q1273 -4 1237 43T1194 178Q1190
225 1197 304T1244 520Q1246 520 1257 520T1280 520T1294 520Q1263 429 1218 337T1115 167T987 43T836 -4Q770 -4 705 42T597 184T558 426Q560 527 593 634T693 834T863 983T1108 1040Q1171 1040 1232 1028T1336 986L1506 1018Q1493 965 1476 892T1442 738T1409
575T1382 424Q1363 292 1365 225T1402 158Q1456 158 1513 205T1620 335T1699 531T1730 774Q1730 951 1683 1065T1553 1243T1361 1332T1128 1358Q963 1358 817 1292T558 1104T382 811T318 434Q318 226 375 82T529 -149T750 -276T1004 -316Q1106 -316 1185 -302T1320
-267T1412 -228L1450 -360Q1386 -400 1260 -432T984 -464ZM884 176Q925 176 972 220T1065 337T1152 495T1221 666T1258 818Q1234 856 1184 871T1088 886Q1009 886 948 849T844 749T778 611T752 462Q748 335 779 256T884 176Z" />
<glyph unicode="A" horiz-adv-x="1376" d="M262 0H14L578 1502H807L1363 0H1108L737 1117L695 1260L651 1117L262 0ZM294 365L334 538H1016L1058 365H294Z" />
<glyph unicode="B" horiz-adv-x="1322" d="M189 0V1488L299 1486Q348 1486 399 1489T509 1496T641 1500Q812 1500 922 1456T1085 1333T1138 1146Q1138 1076 1115 1004T1041 878T912 802Q1003 797 1075 747T1191 618T1234 447Q1234 312 1180 208T995 45T632 -14Q545
-14 452 -9T305 0H189ZM421 851Q448 847 481 846T549 844T616 845T676 846Q778 846 844 912T911 1114Q911 1227 831 1281T602 1335Q584 1335 546 1334T471 1329T421 1321V851ZM421 177Q438 167 480 162T570 156T654 154Q815 154 906 213T997 423Q997 558 916 619T662
681Q634 681 601 681T534 682T471 680T421 676V177Z" />
<glyph unicode="C" horiz-adv-x="1280" d="M93 737Q93 922 148 1064T301 1304T523 1452T788 1502Q900 1502 976 1491T1102 1466T1181 1446L1147 1237Q1131 1247 1092 1265T983 1298T803 1314Q659 1314 552 1246T387 1051T328 751Q328 581 385 450T551 243T808
168Q882 168 955 182T1086 217T1170 260V62Q1127 45 1075 27T956 -3T796 -16Q583 -16 425 78T180 342T93 737Z" />
<glyph unicode="D" horiz-adv-x="1440" d="M176 0V1486Q196 1486 215 1486T254 1486T292 1486Q339 1486 396 1490T516 1498T646 1502Q1008 1502 1182 1314T1356 786Q1356 532 1267 351T1012 75T622 -16Q543 -14 446 -7T272 0Q256 0 240 0T208 0T176 0ZM412 178Q460
168 527 164T656 160Q789 162 891 223T1052 414T1110 752Q1110 967 1053 1093T883 1275T600 1330Q542 1330 493 1326T412 1316V178Z" />
<glyph unicode="E" horiz-adv-x="1182" d="M176 0V1486H1040V1306H412V854H878V676H412V184H1110V0H176Z" />
<glyph unicode="F" horiz-adv-x="1056" d="M176 0V1486H1038V1306H412V836H880V656H412V0H176Z" />
<glyph unicode="G" horiz-adv-x="1410" d="M96 736Q96 929 150 1072T299 1311T522 1454T795 1502Q907 1502 974 1493T1094 1470T1212 1444L1202 1235Q1131 1271 1040 1294T784 1318Q654 1318 554 1252T396 1062T339 762Q339 594 387 458T533 243T784 163Q865 163
946 176T1070 216V610L1129 569L808 583V754H1296V91Q1263 89 1222 73T1124 36T986 0T790 -16Q569 -16 414 81T178 349T96 736Z" />
<glyph unicode="H" horiz-adv-x="1500" d="M176 0V1486H412V840H1090V1486H1324V0H1090V660H412V0H176Z" />
<glyph unicode="I" horiz-adv-x="640" d="M201 0V1486H437V0H201Z" />
<glyph unicode="J" horiz-adv-x="711" d="M33 -324L-36 -201Q41 -172 121 -107T232 73Q255 161 259 300T264 594V1486H500V598Q500 453 501 323T482 85Q464 -12 416 -85T302 -208T166 -287T33 -324Z" />
<glyph unicode="K" horiz-adv-x="1338" d="M176 0V1486H408V752L988 1486H1258L656 748L626 716L356 408L408 602V0H176ZM950 110Q910 184 858 267T749 435T642 597T552 738L632 792L716 886Q735 852 779 785T881 630T1001 448T1119 266T1214 108Q1225 90 1235
72T1256 36T1278 0H1010Q997 20 987 42T950 110Z" />
<glyph unicode="L" horiz-adv-x="1050" d="M176 0V1486H410V186H994V0H176Z" />
<glyph unicode="M" horiz-adv-x="1872" d="M119 0L272 1486H602L864 650L941 332L1010 650L1259 1486H1575L1753 0H1519L1431 901L1403 1311L1301 901L1008 -14H867L559 901L451 1311L422 901L344 0H119Z" />
<glyph unicode="N" horiz-adv-x="1508" d="M176 0V1486H390L1012 524L1210 154H1140L1114 570V1486H1332V0H1108L510 926L280 1344H366L390 894V0H176Z" />
<glyph unicode="O" horiz-adv-x="1528" d="M758 -16Q551 -20 400 78T169 352T94 754Q99 1003 192 1169T441 1418T788 1502Q986 1503 1133 1410T1359 1145T1434 744Q1429 495 1340 328T1100 74T758 -16ZM764 164Q962 164 1079 313T1196 754Q1196 908 1150 1037T1011
1245T780 1324Q659 1324 557 1262T394 1071T332 740Q332 587 380 456T525 244T764 164Z" />
<glyph unicode="P" horiz-adv-x="1244" d="M176 0V1486H278Q370 1486 460 1494T650 1502Q812 1502 929 1452T1109 1294T1172 1014Q1172 771 1026 636T600 500Q530 500 485 501T412 502V0H176ZM412 682Q457 676 501 674T586 672Q679 672 760 698T890 798T940 1014Q940
1185 849 1262T584 1334Q541 1333 496 1329T412 1316V682Z" />
<glyph unicode="Q" horiz-adv-x="1537" d="M1197 -293Q1081 -293 1001 -267T855 -171T711 28L817 66H920Q955 2 990 -35T1074 -89T1203 -105Q1241 -105 1276 -101T1346 -85V-252Q1324 -267 1290 -280T1197 -293ZM758 -16Q551 -20 400 78T169 352T94 754Q99 1003
192 1169T441 1418T788 1502Q986 1503 1133 1410T1359 1145T1434 744Q1429 495 1340 328T1100 74T758 -16ZM764 164Q962 164 1079 313T1196 754Q1196 908 1150 1037T1011 1245T780 1324Q659 1324 557 1262T394 1071T332 740Q332 587 380 456T525 244T764 164Z"
/>
<glyph unicode="R" horiz-adv-x="1334" d="M412 0H176V1486Q194 1486 211 1486T245 1486T280 1486Q351 1486 448 1494T662 1502Q774 1502 867 1479T1028 1405T1134 1274T1172 1078Q1172 944 1127 852T999 707T800 636Q759 630 716 627T602 622T412 620V0ZM412
788Q433 785 476 784T565 782T636 782Q780 782 858 852T936 1068Q936 1154 907 1212T811 1300T628 1330Q570 1330 514 1326T412 1312V788ZM1012 0Q999 20 990 41T958 110Q927 177 897 261T832 426T750 561T642 626L732 696L872 684Q931 659 977 594T1063 444T1139
270T1216 110Q1231 82 1246 55T1276 0H1012Z" />
<glyph unicode="S" horiz-adv-x="1130" d="M551 -16Q454 -16 368 -2T219 33T130 70L179 261Q217 239 274 218T399 184T537 170Q674 170 746 216T818 366Q818 436 782 483T675 573T496 666Q405 711 320 774T179 922T124 1117Q124 1225 166 1298T281 1417T441 1482T623
1502Q759 1502 848 1476T976 1423L930 1238Q879 1270 811 1295T623 1321Q550 1321 488 1302T388 1244T350 1144Q350 1075 378 1029T471 942T639 847Q714 808 787 765T919 668T1014 547T1050 390Q1050 254 987 164T811 29T551 -16Z" />
<glyph unicode="T" horiz-adv-x="1263" d="M514 0V1306H56V1486H1207V1306H750V0H514Z" />
<glyph unicode="U" horiz-adv-x="1439" d="M727 -16Q520 -16 394 60T211 279T154 622L155 1486H389L387 667Q387 468 427 360T545 210T734 168Q834 168 905 210T1015 361T1054 667V1486H1286V618Q1286 312 1148 148T727 -16Z" />
<glyph unicode="V" horiz-adv-x="1329" d="M573 -11L17 1486H266L604 519L672 280L743 519L1066 1486H1312L769 -11H573Z" />
<glyph unicode="W" horiz-adv-x="1883" d="M425 -16L19 1486H258L485 538L552 155H517L586 538L854 1486H1033L1307 538L1393 155H1354L1417 537L1628 1486H1864L1480 -16H1247L978 932L905 1339L977 1337L906 932L633 -16H425Z" />
<glyph unicode="X" horiz-adv-x="1295" d="M40 0L527 802L540 712L44 1486L306 1488L546 1094L682 865H633L767 1094L995 1486H1244L767 710L740 802L1254 0H989L732 434L603 646L667 648L542 434L290 0H40Z" />
<glyph unicode="Y" horiz-adv-x="1230" d="M499 0V632L534 503L10 1486H261L581 854L643 702H607L659 854L974 1486H1221L702 503L737 629V0H499Z" />
<glyph unicode="Z" horiz-adv-x="1228" d="M104 0L60 82L804 1232L860 1302H142V1486H1126L1172 1408L444 268L372 182H1116V0H104Z" />
<glyph unicode="[" horiz-adv-x="802" d="M180 58V1452Q180 1548 195 1601T251 1675T366 1696Q461 1696 523 1689T662 1672V1548H400V-44L662 -46V-164Q586 -173 524 -179T366 -186Q290 -186 250 -165T195 -91T180 58Z" />
<glyph unicode="\" horiz-adv-x="902" d="M798 -354L242 1562H40L596 -354H798Z" />
<glyph unicode="]" horiz-adv-x="802" d="M622 58V1452Q622 1548 607 1601T551 1675T436 1696Q341 1696 279 1689T140 1672V1548H402V-44L140 -46V-164Q216 -173 278 -179T436 -186Q512 -186 552 -165T607 -91T622 58Z" />
<glyph unicode="^" horiz-adv-x="1333" d="M186 498L590 1496H742L1148 498H912L660 1194H674L424 498H186Z" />
<glyph unicode="_" horiz-adv-x="1654" d="M-39 -405V-266H1693V-405H-39Z" />
<glyph unicode="`" horiz-adv-x="594" d="M543 1353L429 1257Q399 1271 346 1311T234 1405T125 1513T49 1608L213 1746Q258 1685 314 1617T429 1482T543 1353Z" />
<glyph unicode="a" horiz-adv-x="1118" d="M436 -16Q336 -16 259 23T137 135T92 307Q92 414 149 488T304 605Q368 631 443 646T593 668T732 675L780 614L732 533Q693 533 639 528T531 511T441 481Q390 458 356 422T322 322Q322 238 368 195T507 152Q554 152 602
166T685 198T732 229L778 180L745 94Q701 54 618 19T436 -16ZM963 0H745V166H732V780Q732 878 681 909T534 941Q471 941 404 929T281 898T195 860L141 1026Q164 1040 229 1065T382 1110T556 1131Q681 1131 772 1102T913 995T963 767V0Z" />
<glyph unicode="b" horiz-adv-x="1233" d="M171 1622H401V1168L393 972L401 966V164L171 62V1622ZM575 -18Q514 -18 450 -10T327 12T228 38T171 62L401 188Q428 169 477 159T599 148Q685 148 753 196T862 339T905 570Q907 768 836 859T637 950Q559 950 498 921T401
864L365 978Q388 1002 428 1037T534 1100T701 1128Q819 1128 919 1071T1080 896T1141 598Q1141 417 1071 278T873 61T575 -18Z" />
<glyph unicode="c" horiz-adv-x="976" d="M80 544Q80 709 140 841T320 1050T620 1128Q725 1128 798 1109T898 1072L862 890Q820 919 761 933T618 948Q543 948 473 912T356 795T304 584Q300 446 340 352T452 209T612 160Q695 160 765 181T872 224L916 90Q865 42
772 13T574 -16Q415 -16 305 58T138 258T80 544Z" />
<glyph unicode="d" horiz-adv-x="1224" d="M844 0V148L832 154V942L840 948L832 1168V1626H1062V0H844ZM533 -16Q416 -16 316 42T154 218T92 517Q92 698 162 835T357 1050T652 1128Q755 1128 825 1104T914 1062L832 915Q802 941 753 951T635 961Q550 961 482 914T372
774T330 544Q327 348 398 257T597 166Q675 166 736 195T832 251L870 137Q846 112 806 76T700 12T533 -16Z" />
<glyph unicode="e" horiz-adv-x="1116" d="M598 -16Q358 -16 228 136T98 558Q98 720 155 848T325 1051T602 1128Q686 1130 760 1104T891 1026T981 893T1018 706Q1018 643 1017 594T1008 506H232L252 652H802Q807 732 793 803T731 919T590 964Q512 964 450 921T354
774T326 492Q332 366 377 293T495 189T658 158Q696 158 751 166T857 188T936 218L980 86Q943 56 880 33T742 -3T598 -16Z" />
<glyph unicode="f" horiz-adv-x="800" d="M240 0V943H75V1072L240 1114V1212Q240 1336 277 1419T374 1551T506 1621T646 1642Q695 1642 737 1635T795 1622V1444Q766 1453 730 1458T630 1463Q561 1463 517 1411T472 1252V1114H743V943H472V0H240Z" />
<glyph unicode="g" horiz-adv-x="1203" d="M570 -504Q350 -504 222 -423T94 -176Q94 -114 124 -66T198 16T284 66L432 44Q411 25 385 4T340 -51T320 -144Q320 -210 346 -256T428 -327T578 -352Q664 -352 737 -334T854 -278T898 -184Q898 -125 877 -84T797 -22T626
0H516Q459 0 415 2T336 14Q324 17 313 24T290 36Q215 65 190 116T164 218Q164 257 184 297T242 375T330 442L473 406Q437 392 408 358T378 284Q378 223 407 202T506 180H706Q835 180 916 153T1041 81T1101 -20T1118 -134Q1118 -221 1075 -289T956 -406T781 -479T570
-504ZM563 380Q438 380 338 426T180 555T122 746Q122 876 180 960T339 1085T567 1128Q691 1131 794 1092T958 971T1020 758Q1020 636 961 552T799 424T563 380ZM569 530Q672 530 733 576T794 751Q794 861 741 918T580 976Q518 976 465 958T380 892T348 755Q348
664 400 597T569 530ZM897 940L834 1033Q856 1061 921 1091T1065 1121H1177V940H897Z" />
<glyph unicode="h" horiz-adv-x="1268" d="M171 0V1626H401V1168L389 967L378 993Q418 1025 480 1056T614 1107T757 1130Q939 1135 1021 1030T1104 681V0H874V683Q874 820 832 881T667 936Q614 935 540 911T401 838V0H171Z" />
<glyph unicode="i" horiz-adv-x="590" d="M180 0V1112H410V0H180ZM282 1309Q224 1309 181 1346T137 1447Q137 1491 161 1526T224 1583T303 1605Q374 1605 410 1565T446 1467Q446 1398 397 1354T282 1309Z" />
<glyph unicode="j" horiz-adv-x="572" d="M-82 -480V-315Q-66 -322 -29 -328T33 -335Q121 -335 153 -262T185 -38V1112H416V44Q416 -151 375 -269T254 -442T60 -496Q45 -496 14 -494T-45 -489T-82 -480ZM292 1309Q234 1309 191 1346T147 1447Q147 1491 171 1526T234
1583T313 1605Q384 1605 420 1565T456 1467Q456 1398 407 1354T292 1309Z" />
<glyph unicode="k" horiz-adv-x="1155" d="M1099 1114L371 354L391 408L395 216V0H171V662V1622H395V774L387 530L333 568L829 1114H1099ZM511 548L667 698L1147 0H885L511 548Z" />
<glyph unicode="l" horiz-adv-x="592" d="M180 0V1626H412V0H180Z" />
<glyph unicode="m" horiz-adv-x="1938" d="M172 0V1112H379L380 994Q421 1022 482 1053T616 1106T760 1130Q880 1134 953 1093T1059 956T1093 697V0H863V683Q863 774 848 831T790 915T666 937Q614 936 541 912T402 838V0H172ZM1081 837L1032 983Q1071 1016 1135
1049T1277 1105T1434 1130Q1553 1132 1628 1092T1738 957T1774 698V0H1543V683Q1543 774 1529 831T1473 915T1348 937Q1290 936 1216 909T1081 837Z" />
<glyph unicode="n" horiz-adv-x="1262" d="M172 0V1112H379L380 994Q421 1022 483 1053T618 1106T763 1130Q942 1135 1020 1038T1098 695V0H866V683Q866 823 829 884T666 938Q631 937 586 926T493 893T402 838V0H172Z" />
<glyph unicode="o" horiz-adv-x="1198" d="M589 -16Q453 -16 358 32T204 163T119 353T93 580Q96 759 164 881T348 1065T609 1128Q791 1128 900 1046T1058 828T1105 534Q1102 355 1035 233T852 47T589 -16ZM595 147Q732 145 801 250T871 543Q871 659 843 753T756
905T603 963Q467 966 398 865T329 577Q329 461 357 364T444 208T595 147Z" />
<glyph unicode="p" horiz-adv-x="1224" d="M162 -494V1114H372V978L392 954V92L390 46L392 -136V-494H162ZM573 -16Q470 -16 401 10T312 52L392 200Q424 173 472 162T589 150Q675 150 744 198T853 340T896 569Q898 769 827 859T627 950Q549 950 489 921T392 863L356
977Q379 1001 419 1037T525 1100T691 1128Q809 1128 909 1071T1071 896T1132 598Q1132 417 1063 279T868 62T573 -16Z" />
<glyph unicode="q" horiz-adv-x="1224" d="M834 -136L838 106L834 196V954L856 978L862 1076L1064 1114V-494H834V-136ZM533 -16Q416 -16 316 42T154 218T92 517Q92 698 162 835T357 1050T652 1128Q755 1128 836 1104T935 1062L834 915Q803 941 753 951T635 961Q550
961 482 914T372 774T330 544Q327 348 398 257T597 166Q675 166 737 195T834 251L870 137Q847 112 807 76T700 12T533 -16Z" />
<glyph unicode="r" horiz-adv-x="806" d="M370 818L356 970Q371 1001 419 1038T532 1103T666 1130Q704 1130 731 1127T772 1116V900Q757 908 727 917T628 926Q566 926 517 909T430 866T370 818ZM152 0V1112H348L364 970L382 886V0H152Z" />
<glyph unicode="s" horiz-adv-x="960" d="M104 66L136 236Q151 225 198 207T312 173T450 156Q546 155 596 189T646 284Q646 327 616 359T534 418T414 476Q324 517 255 565T148 678T110 834Q112 933 167 998T315 1096T520 1128Q625 1128 704 1107T808 1070L774
896Q756 911 719 925T632 949T532 958Q430 958 378 929T324 846Q323 773 374 737T498 666Q601 616 684 568T815 457T864 302Q864 146 757 65T464 -16Q387 -16 315 -4T187 27T104 66Z" />
<glyph unicode="t" horiz-adv-x="846" d="M482 -16Q403 -16 343 9T250 97T216 278V944H72V1068Q146 1089 185 1103T242 1166Q250 1188 260 1218T282 1286T308 1368H446V1114H758V944H446V400Q446 292 455 243T491 180T570 166Q598 166 634 172T704 189T756 210L794
78Q764 55 714 34T603 -2T482 -16Z" />
<glyph unicode="u" horiz-adv-x="1216" d="M484 -16Q375 -16 308 18T206 115T159 267T146 462V1114H376V464Q376 332 396 270T460 190T574 172Q615 172 661 184T749 214T814 248V1114H1044V-16H938Q892 -16 865 -3T838 66V144L842 100Q797 70 737 44T610 1T484 -16Z" />
<glyph unicode="v" horiz-adv-x="1100" d="M456 -16L18 1114H267L478 495L590 121H530L633 495L837 1114H1082L655 -16H456Z" />
<glyph unicode="w" horiz-adv-x="1616" d="M360 -16L20 1114H251L424 469L505 109H443L519 467L700 1114H926L1107 469L1184 113H1126L1205 462L1371 1114H1596L1255 -16H1044L848 688L787 988H835L770 688L578 -16H360Z" />
<glyph unicode="x" horiz-adv-x="1088" d="M22 0L438 596L440 530L20 1114H282L516 758L584 644H508L566 760L800 1114H1060L638 532V606L1068 0H802L566 360L484 492H570L504 358L286 0H22Z" />
<glyph unicode="y" horiz-adv-x="1102" d="M138 -480V-292Q155 -298 187 -302T236 -306Q278 -306 336 -283T447 -188T530 28L544 0H448L50 1114H298L530 392L624 80H564L646 392L844 1114H1092L722 -34Q656 -235 565 -341T366 -478Q345 -485 311 -490T254 -496Q239
-496 214 -494T167 -488T138 -480Z" />
<glyph unicode="z" horiz-adv-x="1026" d="M102 0L60 80L590 860L648 942H120V1114H924L958 1020L432 248L374 166H938V0H102Z" />
<glyph unicode="{" horiz-adv-x="962" d="M328 58V554Q328 583 287 611T187 660T80 686V832Q129 837 187 855T286 899T328 956V1452Q328 1596 370 1650T524 1704Q605 1704 672 1696T802 1680V1552H542V956Q542 928 531 905T500 862Q476 838 439 818T360 781T276
746V770Q317 755 359 736T439 694T502 644Q520 625 531 604T542 556V-44H802V-160Q739 -176 672 -185T524 -194Q412 -194 370 -140T328 58Z" />
<glyph unicode="|" horiz-adv-x="836" d="M314 -184V1738H521V-184H314Z" />
<glyph unicode="}" horiz-adv-x="962" d="M634 58V554Q634 583 675 611T775 660T882 686V832Q833 837 775 855T676 899T634 956V1452Q634 1596 592 1650T438 1704Q357 1704 290 1696T160 1680V1552H420V956Q420 928 431 905T462 862Q486 838 523 818T602 781T686
746V770Q645 755 603 736T523 694T460 644Q442 625 431 604T420 556V-44H160V-160Q223 -176 290 -185T438 -194Q550 -194 592 -140T634 58Z" />
<glyph unicode="~" horiz-adv-x="1406" d="M325 660L209 752Q225 793 267 842T375 926T520 962Q592 962 640 938T727 881T805 825T895 800Q964 800 1011 832T1093 908L1195 805Q1177 756 1135 710T1030 635T883 606Q811 606 764 630T681 687T606 744T514 769Q445
769 403 737T325 660Z" />
<glyph unicode="&#xa0;" horiz-adv-x="360" />
<glyph unicode="&#xa1;" horiz-adv-x="595" d="M389 809L420 -426H161L187 809H389ZM304 1334Q365 1334 408 1290T453 1179Q454 1130 431 1090T370 1026T289 1002Q216 1002 178 1048T139 1156Q138 1206 161 1246T221 1310T304 1334Z" />
<glyph unicode="&#xa2;" horiz-adv-x="1156" d="M596 1042L604 1344H754L748 1042H596ZM564 -210L570 90H720L714 -210H564ZM136 544Q136 709 196 841T376 1050T676 1128Q781 1128 854 1109T954 1072L918 890Q876 919 817 933T674 948Q599 948 529 912T412 795T360
584Q356 446 396 352T508 209T668 160Q751 160 821 181T928 224L972 90Q921 42 828 13T630 -16Q471 -16 361 58T194 258T136 544Z" />
<glyph unicode="&#xa3;" horiz-adv-x="1504" d="M137 84Q137 131 166 169T252 231T393 259Q406 285 412 320T420 395T422 469V1016Q422 1162 477 1271T637 1441T892 1502Q1014 1502 1093 1473T1219 1406L1113 1238Q1074 1272 1020 1299T879 1326Q825 1326 773
1302T687 1205T654 983L656 675Q657 491 642 380T574 214Q634 204 679 187T779 157T916 144Q1054 144 1104 199T1154 328Q1154 383 1130 424T1083 474L1244 557Q1268 544 1297 512T1348 429T1370 315Q1370 147 1262 64T945 -20Q842 -20 765 -3T629 38T526 77T445
90Q415 56 361 27T248 -3Q225 -3 199 7T155 37T137 84ZM247 731V884H991V731H247Z" />
<glyph unicode="&#xa4;" horiz-adv-x="1495" d="M746 322Q627 322 529 380T372 536T313 754Q313 876 371 974T528 1130T746 1188Q866 1188 964 1130T1120 974T1179 754Q1179 634 1121 536T964 380T746 322ZM748 491Q817 491 874 527T964 623T998 754Q998 827 965
887T874 983T748 1019Q678 1019 621 983T529 887T495 754Q495 683 529 623T620 527T748 491ZM415 983L194 1205L320 1334L541 1109L415 983ZM1079 981L953 1110L1179 1336L1305 1208L1079 981ZM321 174L194 301L415 524L543 397L321 174ZM1174 178L953 400L1079
528L1300 305L1174 178Z" />
<glyph unicode="&#xa5;" horiz-adv-x="1504" d="M641 0V805L694 632L159 1486H406L692 992L783 806Q775 806 767 806T750 806T732 806L816 997L1112 1486H1355L819 647L868 805V0H641ZM270 651V799H1217V651H270ZM270 282V430H1217V282H270Z" />
<glyph unicode="&#xa6;" horiz-adv-x="836" d="M314 -182V622H521V-182H314ZM314 930V1738H521V930H314Z" />
<glyph unicode="&#xa7;" horiz-adv-x="1334" d="M225 1299Q225 1396 267 1461T377 1564T525 1618T680 1634Q818 1634 907 1611T1038 1562L998 1390Q964 1413 888 1438T680 1464Q617 1463 562 1449T472 1403T438 1318Q438 1261 475 1218T574 1140T710 1070T857
997T992 909T1091 795T1129 642Q1129 534 1073 443T931 286L829 344Q848 370 870 415T907 512T923 604Q923 673 885 723T785 811T649 882T500 952T363 1035T263 1146T225 1299ZM1113 148Q1113 52 1069 -12T954 -115T798 -171T633 -188Q497 -188 386 -159T229 -98L269
74Q309 46 405 14T633 -18Q704 -18 765 -4T863 44T901 132Q901 192 851 234T722 310T555 380T387 464T258 581T208 750Q208 854 264 943T402 1094L511 1036Q492 1010 470 967T432 875T416 786Q416 720 454 675T554 596T690 533T839 472T975 398T1075 295T1113 148Z"
/>
<glyph unicode="&#xa8;" horiz-adv-x="862" d="M194 1323Q138 1323 99 1359T60 1456Q60 1519 109 1563T217 1608Q285 1608 317 1569T349 1473Q349 1407 303 1365T194 1323ZM646 1323Q590 1323 551 1359T512 1456Q512 1519 560 1563T669 1608Q738 1608 769 1569T801
1473Q801 1407 755 1365T646 1323Z" />
<glyph unicode="&#xa9;" horiz-adv-x="2074" d="M187 940Q187 1119 252 1274T433 1546T704 1730T1037 1796Q1215 1796 1369 1730T1639 1547T1821 1274T1887 940Q1887 762 1822 606T1640 332T1369 147T1037 80Q859 80 705 146T434 331T252 606T187 940ZM325 940Q325
789 378 656T527 422T753 263T1037 206Q1190 206 1319 263T1545 421T1694 656T1747 940Q1747 1092 1694 1224T1545 1458T1320 1617T1037 1674Q883 1674 753 1617T527 1459T378 1225T325 940ZM603 933Q603 1071 658 1180T822 1352T1087 1416Q1179 1416 1238 1397T1323
1363L1289 1196Q1250 1221 1196 1238T1071 1255Q941 1255 871 1169T800 952Q800 792 874 710T1065 628Q1142 628 1204 648T1303 687L1347 561Q1300 521 1216 494T1034 467Q900 467 803 532T655 704T603 933Z" />
<glyph unicode="&#xaa;" horiz-adv-x="1016" d="M417 660Q286 660 205 724T123 906Q123 1006 172 1065T299 1154Q357 1176 420 1188T545 1205T661 1210L703 1150L661 1086Q592 1086 525 1082T405 1052Q362 1030 342 1001T322 920Q322 864 362 837T461 810Q531
810 588 833T661 871L703 813L671 753Q639 719 571 690T417 660ZM866 669H786Q731 669 701 676T671 741V803H661V1267Q661 1362 615 1384T476 1407Q432 1407 376 1394T272 1363T203 1330L147 1454Q165 1471 225 1497T364 1544T519 1565Q680 1565 773 1502T866 1273V1138V669Z"
/>
<glyph unicode="&#xab;" horiz-adv-x="1901" d="M238 501V692L848 1110L906 943L406 558V642L906 261L848 97L238 501ZM961 501V692L1591 1110L1649 943L1129 558V642L1649 261L1591 97L961 501Z" />
<glyph unicode="&#xac;" horiz-adv-x="1438" d="M235 663V832H1203V316H999V663H235Z" />
<glyph unicode="&#xad;" horiz-adv-x="1190" d="M180 560V746H1010V560H180Z" />
<glyph unicode="&#xae;" horiz-adv-x="2074" d="M186 940Q186 1119 251 1274T433 1546T704 1730T1037 1796Q1215 1796 1369 1730T1640 1547T1822 1274T1888 940Q1888 762 1823 606T1641 332T1370 147T1037 80Q859 80 704 146T433 331T252 606T186 940ZM324 940Q324
789 377 656T527 422T754 263T1037 206Q1190 206 1319 263T1545 421T1694 656T1748 940Q1748 1092 1695 1224T1545 1458T1320 1617T1037 1674Q884 1674 754 1617T528 1459T378 1225T324 940ZM715 468V1408Q735 1408 754 1408T793 1408Q829 1408 869 1409T953 1412T1046
1414Q1228 1414 1311 1336T1395 1146Q1395 1040 1354 962T1208 851Q1244 826 1270 786T1319 701T1364 614Q1379 586 1398 558T1458 468H1251Q1229 497 1213 527T1179 595Q1159 639 1137 688T1084 775T1009 827Q998 826 980 826T939 825T895 825V468H715ZM895 959Q909
957 932 956T979 955T1019 955Q1114 955 1161 993T1209 1123Q1209 1197 1167 1240T999 1281Q968 1280 945 1279T895 1269V959Z" />
<glyph unicode="&#xaf;" horiz-adv-x="641" d="M49 1391V1557H592V1391H49Z" />
<glyph unicode="&#xb0;" horiz-adv-x="898" d="M114 1248Q114 1345 158 1420T279 1539T450 1583Q543 1583 619 1539T740 1420T785 1248Q785 1151 740 1076T620 957T450 913Q357 913 281 957T160 1077T114 1248ZM278 1248Q278 1170 328 1119T450 1068Q521 1068
570 1119T620 1248Q620 1326 571 1377T450 1428Q378 1428 328 1377T278 1248Z" />
<glyph unicode="&#xb1;" horiz-adv-x="1362" d="M243 0V168H1118V0H243ZM587 274V500L595 671L433 663H221V847H433L595 838L587 1009V1229H773V1009L765 838L905 847H1141V663H905L765 671L773 500V274H587Z" />
<glyph unicode="&#xb2;" horiz-adv-x="987" d="M109 800L80 886Q147 920 223 974T372 1095T506 1239T602 1397T638 1557Q638 1643 586 1689T429 1735Q349 1735 273 1704T155 1635L88 1752Q123 1788 181 1821T313 1876T474 1898Q612 1898 694 1851T813 1727T850
1562Q850 1445 790 1341T625 1143T384 960L887 973V800H109Z" />
<glyph unicode="&#xb3;" horiz-adv-x="866" d="M102 818L100 950Q138 943 184 939T262 934Q367 934 441 955T553 1019T592 1124Q592 1170 569 1210T493 1274T352 1291L251 1266L221 1394Q274 1405 316 1418T392 1446Q465 1477 503 1519T544 1614Q546 1677 496
1709T366 1742Q278 1742 219 1715T123 1663L59 1791Q83 1814 135 1839T256 1883T398 1901Q508 1901 587 1870T708 1782T750 1644Q750 1537 675 1464T497 1355L496 1373Q601 1375 670 1338T773 1241T807 1117Q807 1020 750 946T583 829T316 786Q246 786 188 798T102
818Z" />
<glyph unicode="&#xb4;" horiz-adv-x="592" d="M165 1257L49 1353Q105 1413 163 1477T276 1608T379 1746L543 1608Q525 1574 475 1520T363 1409T247 1311T165 1257Z" />
<glyph unicode="&#xb5;" horiz-adv-x="1336" d="M201 -362V1114H429V405Q429 272 487 220T664 167Q701 167 738 180T810 212T868 249V1114H1098V236Q1098 191 1108 177T1134 162Q1143 162 1163 167T1210 188L1240 84Q1233 74 1203 50T1127 4T1025 -18Q970 -18
935 12T903 118Q880 92 847 61T763 7T642 -16Q530 -16 458 19T340 148L378 158L414 -362H201Z" />
<glyph unicode="&#xb6;" horiz-adv-x="1368" d="M562 0V758Q426 758 332 805T189 954T140 1218Q140 1427 282 1548T704 1670Q739 1670 800 1668T931 1662T1067 1656T1176 1652V0H984V1508H754V0H562Z" />
<glyph unicode="&#xb7;" horiz-adv-x="595" d="M290 554Q230 554 186 598T140 709Q139 758 162 798T224 862T304 886Q377 886 415 840T454 732Q456 682 433 642T372 578T290 554Z" />
<glyph unicode="&#xb8;" horiz-adv-x="480" d="M44 -426L59 -284Q72 -291 94 -293T138 -296Q186 -296 221 -263T261 -150Q270 -81 262 -40T240 30L330 34L373 30Q396 7 410 -32T429 -121T430 -223Q420 -346 350 -400T193 -454Q166 -454 136 -451T80 -441T44 -426Z" />
<glyph unicode="&#xb9;" horiz-adv-x="726" d="M320 800V1642Q284 1625 254 1616T185 1601T88 1593L60 1709Q162 1726 229 1762T338 1839T408 1906L413 1905L526 1873V800H320Z" />
<glyph unicode="&#xba;" horiz-adv-x="1014" d="M103 1125Q105 1245 143 1329T243 1465T377 1541T524 1565Q651 1565 737 1507T868 1346T910 1105Q908 945 849 847T697 705T503 661Q310 661 206 787T103 1125ZM317 1125Q317 981 368 896T513 812Q604 814 651 880T698
1103Q698 1248 651 1332T513 1414Q428 1413 373 1347T317 1125Z" />
<glyph unicode="&#xbb;" horiz-adv-x="1924" d="M1684 502L1072 98L1014 260L1518 642V558L1014 942L1072 1110L1684 692V502ZM934 502L308 98L250 260L766 642V558L250 942L308 1110L934 692V502Z" />
<glyph unicode="&#xbc;" horiz-adv-x="2108" d="M320 780V1622Q284 1605 254 1596T185 1581T88 1573L60 1689Q162 1706 229 1742T338 1819T408 1886L413 1885L526 1853V780H320ZM1360 1916H1530L552 -102H382L1360 1916ZM1175 245L1126 328Q1150 373 1189 449T1276
617T1370 802T1458 978T1523 1114H1778Q1698 982 1633 871T1512 663T1405 484L1347 394H2062V245H1175ZM1684 0V428L1705 718H1879V0H1684Z" />
<glyph unicode="&#xbd;" horiz-adv-x="2237" d="M320 780V1622Q284 1605 254 1596T185 1581T88 1573L60 1689Q162 1706 229 1742T338 1819T408 1886L413 1885L526 1853V780H320ZM1360 1916H1530L552 -102H382L1360 1916ZM1359 0L1330 86Q1397 120 1473 174T1622
295T1756 439T1852 597T1888 757Q1888 843 1836 889T1679 935Q1599 935 1523 904T1405 835L1338 952Q1373 988 1431 1021T1563 1076T1724 1098Q1862 1098 1944 1051T2063 927T2100 762Q2100 645 2040 541T1875 343T1634 160L2137 173V0H1359Z" />
<glyph unicode="&#xbe;" horiz-adv-x="2312" d="M102 798L100 930Q138 923 184 919T262 914Q367 914 441 935T553 999T592 1104Q592 1150 569 1190T493 1254T352 1271L251 1246L221 1374Q274 1385 316 1398T392 1426Q465 1457 503 1499T544 1594Q546 1657 496
1689T366 1722Q278 1722 219 1695T123 1643L59 1771Q83 1794 135 1819T256 1863T398 1881Q508 1881 587 1850T708 1762T750 1624Q750 1517 675 1444T497 1335L496 1353Q601 1355 670 1318T773 1221T807 1097Q807 1000 750 926T583 809T316 766Q246 766 188 778T102
798ZM1564 1916H1734L756 -102H586L1564 1916ZM1379 245L1330 328Q1354 373 1393 449T1480 617T1574 802T1662 978T1727 1114H1982Q1902 982 1837 871T1716 663T1609 484L1551 394H2266V245H1379ZM1888 0V428L1909 718H2083V0H1888Z" />
<glyph unicode="&#xbf;" horiz-adv-x="1040" d="M671 1004Q703 964 728 894T757 735Q759 667 721 615T623 520T502 437T397 352T344 250Q304 74 409 -21T723 -117Q798 -117 841 -110T903 -98V-266Q891 -274 858 -284T780 -302T682 -309Q508 -309 390 -263T205
-139T115 38T111 239Q121 315 155 370T236 467T333 543T429 610T503 679T537 763Q544 828 530 880T496 1004H671ZM557 1510Q613 1510 656 1467T701 1359Q702 1314 679 1276T619 1214T541 1191Q471 1191 434 1235T395 1338Q394 1387 416 1425T476 1487T557 1510Z"
/>
<glyph unicode="&#xc0;" horiz-adv-x="1376" d="M262 0H14L578 1502H807L1363 0H1108L737 1117L695 1260L651 1117L262 0ZM294 365L334 538H1016L1058 365H294ZM815 1715L716 1619Q681 1632 629 1663T519 1735T413 1817T334 1893L490 2023Q492 2017 524 1985T604
1908T698 1821T779 1748T815 1715Z" />
<glyph unicode="&#xc1;" horiz-adv-x="1376" d="M262 0H14L578 1502H807L1363 0H1108L737 1117L695 1260L651 1117L262 0ZM294 365L334 538H1016L1058 365H294ZM627 1619L527 1712Q529 1714 563 1744T645 1819T741 1907T823 1984T858 2020L1009 1890Q975 1855
928 1814T827 1734T721 1665T627 1619Z" />
<glyph unicode="&#xc2;" horiz-adv-x="1376" d="M262 0H14L578 1502H807L1363 0H1108L737 1117L695 1260L651 1117L262 0ZM294 365L334 538H1016L1058 365H294ZM469 1614L331 1675L587 1971H785L1043 1677L899 1614L685 1811L469 1614Z" />
<glyph unicode="&#xc3;" horiz-adv-x="1376" d="M262 0H14L578 1502H807L1363 0H1108L737 1117L695 1260L651 1117L262 0ZM294 365L334 538H1016L1058 365H294ZM829 1616Q771 1616 733 1636T667 1684T611 1731T545 1752Q499 1752 471 1740T425 1708T395 1662L297
1708Q315 1760 345 1809T423 1890T539 1922Q595 1922 633 1902T700 1855T758 1808T825 1788Q864 1788 892 1799T940 1831T971 1878L1073 1826Q1061 1769 1026 1722T940 1645T829 1616Z" />
<glyph unicode="&#xc4;" horiz-adv-x="1376" d="M262 0H14L578 1502H807L1363 0H1108L737 1117L695 1260L651 1117L262 0ZM294 365L334 538H1016L1058 365H294ZM431 1618Q374 1618 333 1654T292 1753Q292 1820 341 1865T453 1910Q524 1910 558 1871T592 1773Q592
1704 544 1661T431 1618ZM920 1618Q862 1618 822 1654T782 1753Q782 1820 831 1865T941 1910Q1012 1910 1047 1871T1082 1773Q1082 1704 1034 1661T920 1618Z" />
<glyph unicode="&#xc5;" horiz-adv-x="1376" d="M262 0H14L578 1502H807L1363 0H1108L737 1117L695 1260L651 1117L262 0ZM294 365L334 538H1016L1058 365H294ZM683 1483Q539 1483 454 1554T369 1752Q370 1846 417 1902T536 1984T686 2009Q832 2009 918 1943T1005
1749Q1004 1655 959 1597T842 1511T683 1483ZM683 1610Q757 1610 803 1640T850 1749Q850 1816 802 1849T683 1883Q625 1885 576 1858T526 1752Q526 1688 568 1650T683 1610Z" />
<glyph unicode="&#xc6;" horiz-adv-x="1830" d="M-78 0L637 1486L834 1378L179 0H-78ZM822 1486L901 1344H667L637 1486H822ZM230 375L272 546H952L986 375H230ZM822 0V1486H1685V1306H1056V856H1521V676H1056V184H1756V0H822Z" />
<glyph unicode="&#xc7;" horiz-adv-x="1280" d="M93 737Q93 922 148 1064T301 1304T523 1452T788 1502Q900 1502 976 1491T1102 1466T1181 1446L1147 1237Q1131 1247 1092 1265T983 1298T803 1314Q659 1314 552 1246T387 1051T328 751Q328 581 385 450T551 243T808
168Q882 168 955 182T1086 217T1170 260V62Q1127 45 1075 27T956 -3T796 -16Q583 -16 425 78T180 342T93 737ZM483 -426L497 -284Q511 -291 533 -293T577 -296Q637 -296 672 -263T709 -150Q711 -85 702 -42T679 30L769 34L813 30Q833 7 845 -29T863 -112T869 -212Q869
-296 834 -349T745 -428T633 -454Q605 -454 575 -451T519 -441T483 -426Z" />
<glyph unicode="&#xc8;" horiz-adv-x="1182" d="M176 0V1486H1040V1306H412V854H878V676H412V184H1110V0H176ZM758 1715L659 1619Q624 1632 572 1663T462 1735T356 1817T277 1893L433 2023Q435 2017 467 1985T547 1908T641 1821T722 1748T758 1715Z" />
<glyph unicode="&#xc9;" horiz-adv-x="1182" d="M176 0V1486H1040V1306H412V854H878V676H412V184H1110V0H176ZM570 1619L470 1712Q472 1714 506 1744T588 1819T684 1907T766 1984T801 2020L952 1890Q918 1855 871 1814T770 1734T664 1665T570 1619Z" />
<glyph unicode="&#xca;" horiz-adv-x="1182" d="M176 0V1486H1040V1306H412V854H878V676H412V184H1110V0H176ZM412 1614L274 1675L530 1971H728L986 1677L842 1614L628 1811L412 1614Z" />
<glyph unicode="&#xcb;" horiz-adv-x="1182" d="M176 0V1486H1040V1306H412V854H878V676H412V184H1110V0H176ZM374 1618Q317 1618 276 1654T235 1753Q235 1820 284 1865T396 1910Q467 1910 501 1871T535 1773Q535 1704 487 1661T374 1618ZM863 1618Q805 1618 765
1654T725 1753Q725 1820 774 1865T884 1910Q955 1910 990 1871T1025 1773Q1025 1704 977 1661T863 1618Z" />
<glyph unicode="&#xcc;" horiz-adv-x="640" d="M201 0V1486H437V0H201ZM449 1715L350 1619Q315 1632 263 1663T153 1735T47 1817T-32 1893L124 2023Q126 2017 158 1985T238 1908T332 1821T413 1748T449 1715Z" />
<glyph unicode="&#xcd;" horiz-adv-x="640" d="M201 0V1486H437V0H201ZM261 1619L161 1712Q163 1714 197 1744T279 1819T375 1907T457 1984T492 2020L643 1890Q609 1855 562 1814T461 1734T355 1665T261 1619Z" />
<glyph unicode="&#xce;" horiz-adv-x="640" d="M201 0V1486H437V0H201ZM103 1614L-35 1675L221 1971H419L677 1677L533 1614L319 1811L103 1614Z" />
<glyph unicode="&#xcf;" horiz-adv-x="640" d="M201 0V1486H437V0H201ZM65 1618Q8 1618 -33 1654T-74 1753Q-74 1820 -25 1865T87 1910Q158 1910 192 1871T226 1773Q226 1704 178 1661T65 1618ZM554 1618Q496 1618 456 1654T416 1753Q416 1820 465 1865T575 1910Q646
1910 681 1871T716 1773Q716 1704 668 1661T554 1618Z" />
<glyph unicode="&#xd0;" horiz-adv-x="1452" d="M65 699V853H798V699H65ZM176 0V1486Q196 1486 215 1486T254 1486T292 1486Q339 1486 396 1490T516 1498T646 1502Q1008 1502 1182 1314T1356 786Q1356 532 1267 351T1012 75T622 -16Q543 -14 446 -7T272 0Q256
0 240 0T208 0T176 0ZM412 178Q460 168 527 164T656 160Q789 162 891 223T1052 414T1110 752Q1110 967 1053 1093T883 1275T600 1330Q542 1330 493 1326T412 1316V178Z" />
<glyph unicode="&#xd1;" horiz-adv-x="1508" d="M176 0V1486H390L1012 524L1210 154H1140L1114 570V1486H1332V0H1108L510 926L280 1344H366L390 894V0H176ZM908 1616Q850 1616 812 1636T746 1684T690 1731T624 1752Q578 1752 550 1740T504 1708T474 1662L376
1708Q394 1760 424 1809T502 1890T618 1922Q674 1922 712 1902T779 1855T837 1808T904 1788Q943 1788 971 1799T1019 1831T1050 1878L1152 1826Q1140 1769 1105 1722T1019 1645T908 1616Z" />
<glyph unicode="&#xd2;" horiz-adv-x="1528" d="M758 -16Q551 -20 400 78T169 352T94 754Q99 1003 192 1169T441 1418T788 1502Q986 1503 1133 1410T1359 1145T1434 744Q1429 495 1340 328T1100 74T758 -16ZM764 164Q962 164 1079 313T1196 754Q1196 908 1150
1037T1011 1245T780 1324Q659 1324 557 1262T394 1071T332 740Q332 587 380 456T525 244T764 164ZM916 1715L817 1619Q782 1632 730 1663T620 1735T514 1817T435 1893L591 2023Q593 2017 625 1985T705 1908T799 1821T880 1748T916 1715Z" />
<glyph unicode="&#xd3;" horiz-adv-x="1528" d="M758 -16Q551 -20 400 78T169 352T94 754Q99 1003 192 1169T441 1418T788 1502Q986 1503 1133 1410T1359 1145T1434 744Q1429 495 1340 328T1100 74T758 -16ZM764 164Q962 164 1079 313T1196 754Q1196 908 1150
1037T1011 1245T780 1324Q659 1324 557 1262T394 1071T332 740Q332 587 380 456T525 244T764 164ZM728 1619L628 1712Q630 1714 664 1744T746 1819T842 1907T924 1984T959 2020L1110 1890Q1076 1855 1029 1814T928 1734T822 1665T728 1619Z" />
<glyph unicode="&#xd4;" horiz-adv-x="1528" d="M758 -16Q551 -20 400 78T169 352T94 754Q99 1003 192 1169T441 1418T788 1502Q986 1503 1133 1410T1359 1145T1434 744Q1429 495 1340 328T1100 74T758 -16ZM764 164Q962 164 1079 313T1196 754Q1196 908 1150
1037T1011 1245T780 1324Q659 1324 557 1262T394 1071T332 740Q332 587 380 456T525 244T764 164ZM570 1614L432 1675L688 1971H886L1144 1677L1000 1614L786 1811L570 1614Z" />
<glyph unicode="&#xd5;" horiz-adv-x="1528" d="M758 -16Q551 -20 400 78T169 352T94 754Q99 1003 192 1169T441 1418T788 1502Q986 1503 1133 1410T1359 1145T1434 744Q1429 495 1340 328T1100 74T758 -16ZM764 164Q962 164 1079 313T1196 754Q1196 908 1150
1037T1011 1245T780 1324Q659 1324 557 1262T394 1071T332 740Q332 587 380 456T525 244T764 164ZM930 1616Q872 1616 834 1636T768 1684T712 1731T646 1752Q600 1752 572 1740T526 1708T496 1662L398 1708Q416 1760 446 1809T524 1890T640 1922Q696 1922 734 1902T801
1855T859 1808T926 1788Q965 1788 993 1799T1041 1831T1072 1878L1174 1826Q1162 1769 1127 1722T1041 1645T930 1616Z" />
<glyph unicode="&#xd6;" horiz-adv-x="1528" d="M758 -16Q551 -20 400 78T169 352T94 754Q99 1003 192 1169T441 1418T788 1502Q986 1503 1133 1410T1359 1145T1434 744Q1429 495 1340 328T1100 74T758 -16ZM764 164Q962 164 1079 313T1196 754Q1196 908 1150
1037T1011 1245T780 1324Q659 1324 557 1262T394 1071T332 740Q332 587 380 456T525 244T764 164ZM532 1618Q475 1618 434 1654T393 1753Q393 1820 442 1865T554 1910Q625 1910 659 1871T693 1773Q693 1704 645 1661T532 1618ZM1021 1618Q963 1618 923 1654T883
1753Q883 1820 932 1865T1042 1910Q1113 1910 1148 1871T1183 1773Q1183 1704 1135 1661T1021 1618Z" />
<glyph unicode="&#xd7;" horiz-adv-x="1340" d="M217 423L550 756L217 1099L352 1231L671 881L990 1231L1125 1099L792 758L1125 423L990 291L671 629L352 291L217 423Z" />
<glyph unicode="&#xd8;" horiz-adv-x="1537" d="M359 -199L242 -164L1180 1705L1296 1670L359 -199ZM762 -16Q555 -20 404 78T173 352T98 753Q103 1003 196 1169T445 1418T792 1502Q991 1503 1138 1410T1364 1145T1439 744Q1434 494 1345 327T1105 74T762 -16ZM768
163Q965 163 1083 313T1201 754Q1201 908 1155 1037T1016 1245T784 1324Q663 1324 561 1262T397 1071T335 740Q335 588 383 456T528 244T768 163Z" />
<glyph unicode="&#xd9;" horiz-adv-x="1439" d="M727 -16Q520 -16 394 60T211 279T154 622L155 1486H389L387 667Q387 468 427 360T545 210T734 168Q834 168 905 210T1015 361T1054 667V1486H1286V618Q1286 312 1148 148T727 -16ZM860 1715L761 1619Q726 1632
674 1663T564 1735T458 1817T379 1893L535 2023Q537 2017 569 1985T649 1908T743 1821T824 1748T860 1715Z" />
<glyph unicode="&#xda;" horiz-adv-x="1439" d="M727 -16Q520 -16 394 60T211 279T154 622L155 1486H389L387 667Q387 468 427 360T545 210T734 168Q834 168 905 210T1015 361T1054 667V1486H1286V618Q1286 312 1148 148T727 -16ZM672 1619L572 1712Q574 1714
608 1744T690 1819T786 1907T868 1984T903 2020L1054 1890Q1020 1855 973 1814T872 1734T766 1665T672 1619Z" />
<glyph unicode="&#xdb;" horiz-adv-x="1439" d="M727 -16Q520 -16 394 60T211 279T154 622L155 1486H389L387 667Q387 468 427 360T545 210T734 168Q834 168 905 210T1015 361T1054 667V1486H1286V618Q1286 312 1148 148T727 -16ZM514 1614L376 1675L632 1971H830L1088
1677L944 1614L730 1811L514 1614Z" />
<glyph unicode="&#xdc;" horiz-adv-x="1439" d="M727 -16Q520 -16 394 60T211 279T154 622L155 1486H389L387 667Q387 468 427 360T545 210T734 168Q834 168 905 210T1015 361T1054 667V1486H1286V618Q1286 312 1148 148T727 -16ZM476 1618Q419 1618 378 1654T337
1753Q337 1820 386 1865T498 1910Q569 1910 603 1871T637 1773Q637 1704 589 1661T476 1618ZM965 1618Q907 1618 867 1654T827 1753Q827 1820 876 1865T986 1910Q1057 1910 1092 1871T1127 1773Q1127 1704 1079 1661T965 1618Z" />
<glyph unicode="&#xdd;" horiz-adv-x="1230" d="M499 0V632L534 503L10 1486H261L581 854L643 702H607L659 854L974 1486H1221L702 503L737 629V0H499ZM564 1619L464 1712Q466 1714 500 1744T582 1819T678 1907T760 1984T795 2020L946 1890Q912 1855 865 1814T764
1734T658 1665T564 1619Z" />
<glyph unicode="&#xde;" horiz-adv-x="1238" d="M592 274Q520 274 473 278T396 282V458Q444 449 486 448T568 446Q663 446 745 470T877 564T928 774Q928 929 838 999T564 1064Q522 1063 478 1059T396 1042L328 1218Q394 1220 473 1227T640 1234Q891 1234 1025
1122T1160 776Q1160 538 1015 406T592 274ZM176 0V1486H412V0H176Z" />
<glyph unicode="&#xdf;" horiz-adv-x="1282" d="M186 0V946Q186 1156 258 1287T454 1480T728 1542Q836 1542 922 1510T1059 1417T1110 1266Q1110 1201 1088 1153T1032 1066T965 996T909 931T886 858Q886 800 921 758T1009 676T1114 589T1202 475T1238 310Q1238
219 1205 156T1114 56T988 1T846 -16Q770 -16 709 -6T618 16V194Q644 181 700 163T842 144Q880 144 917 157T979 201T1004 288Q1003 352 970 398T888 484T791 570T709 677T676 830Q676 898 706 947T777 1037T847 1125T878 1236Q878 1308 830 1345T692 1382Q611
1382 549 1341T452 1201T416 926V0H186ZM50 944V1080L216 1120L248 1018L194 944H50Z" />
<glyph unicode="&#xe0;" horiz-adv-x="1118" d="M436 -16Q336 -16 259 23T137 135T92 307Q92 414 149 488T304 605Q368 631 443 646T593 668T732 675L780 614L732 533Q693 533 639 528T531 511T441 481Q390 458 356 422T322 322Q322 238 368 195T507 152Q554 152
602 166T685 198T732 229L778 180L745 94Q701 54 618 19T436 -16ZM963 0H745V166H732V780Q732 878 681 909T534 941Q471 941 404 929T281 898T195 860L141 1026Q164 1040 229 1065T382 1110T556 1131Q681 1131 772 1102T913 995T963 767V0ZM635 1346L540 1257Q510
1271 457 1311T345 1405T236 1513T160 1608L305 1740Q349 1678 405 1610T520 1475T635 1346Z" />
<glyph unicode="&#xe1;" horiz-adv-x="1118" d="M436 -16Q336 -16 259 23T137 135T92 307Q92 414 149 488T304 605Q368 631 443 646T593 668T732 675L780 614L732 533Q693 533 639 528T531 511T441 481Q390 458 356 422T322 322Q322 238 368 195T507 152Q554 152
602 166T685 198T732 229L778 180L745 94Q701 54 618 19T436 -16ZM963 0H745V166H732V780Q732 878 681 909T534 941Q471 941 404 929T281 898T195 860L141 1026Q164 1040 229 1065T382 1110T556 1131Q681 1131 772 1102T913 995T963 767V0ZM487 1257L382 1344Q438
1404 496 1472T611 1613T713 1755L863 1631Q848 1604 812 1561T730 1470T636 1376T549 1298T487 1257Z" />
<glyph unicode="&#xe2;" horiz-adv-x="1118" d="M436 -16Q336 -16 259 23T137 135T92 307Q92 414 149 488T304 605Q368 631 443 646T593 668T732 675L780 614L732 533Q693 533 639 528T531 511T441 481Q390 458 356 422T322 322Q322 238 368 195T507 152Q554 152
602 166T685 198T732 229L778 180L745 94Q701 54 618 19T436 -16ZM963 0H745V166H732V780Q732 878 681 909T534 941Q471 941 404 929T281 898T195 860L141 1026Q164 1040 229 1065T382 1110T556 1131Q681 1131 772 1102T913 995T963 767V0ZM289 1241L179 1301L459
1643H640L911 1301L791 1242L545 1457L289 1241Z" />
<glyph unicode="&#xe3;" horiz-adv-x="1118" d="M436 -16Q336 -16 259 23T137 135T92 307Q92 414 149 488T304 605Q368 631 443 646T593 668T732 675L780 614L732 533Q693 533 639 528T531 511T441 481Q390 458 356 422T322 322Q322 238 368 195T507 152Q554 152
602 166T685 198T732 229L778 180L745 94Q701 54 618 19T436 -16ZM963 0H745V166H732V780Q732 878 681 909T534 941Q471 941 404 929T281 898T195 860L141 1026Q164 1040 229 1065T382 1110T556 1131Q681 1131 772 1102T913 995T963 767V0ZM676 1291Q622 1291 587
1312T525 1360T472 1409T413 1430Q371 1430 345 1418T303 1386T275 1341L185 1387Q203 1439 231 1487T304 1566T415 1598Q467 1598 502 1578T563 1530T616 1482T675 1461Q712 1461 738 1472T781 1504T810 1549L904 1497Q892 1440 860 1394T781 1319T676 1291Z"
/>
<glyph unicode="&#xe4;" horiz-adv-x="1118" d="M436 -16Q336 -16 259 23T137 135T92 307Q92 414 149 488T304 605Q368 631 443 646T593 668T732 675L780 614L732 533Q693 533 639 528T531 511T441 481Q390 458 356 422T322 322Q322 238 368 195T507 152Q554 152
602 166T685 198T732 229L778 180L745 94Q701 54 618 19T436 -16ZM963 0H745V166H732V780Q732 878 681 909T534 941Q471 941 404 929T281 898T195 860L141 1026Q164 1040 229 1065T382 1110T556 1131Q681 1131 772 1102T913 995T963 767V0ZM309 1302Q253 1302 214
1338T175 1435Q175 1499 224 1543T332 1587Q400 1587 432 1548T464 1453Q464 1386 418 1344T309 1302ZM761 1302Q706 1302 667 1338T627 1435Q627 1499 676 1543T784 1587Q853 1587 884 1548T916 1453Q916 1386 870 1344T761 1302Z" />
<glyph unicode="&#xe5;" horiz-adv-x="1118" d="M436 -16Q336 -16 259 23T137 135T92 307Q92 414 149 488T304 605Q368 631 443 646T593 668T732 675L780 614L732 533Q693 533 639 528T531 511T441 481Q390 458 356 422T322 322Q322 238 368 195T507 152Q554 152
602 166T685 198T732 229L778 180L745 94Q701 54 618 19T436 -16ZM963 0H745V166H732V780Q732 878 681 909T534 941Q471 941 404 929T281 898T195 860L141 1026Q164 1040 229 1065T382 1110T556 1131Q681 1131 772 1102T913 995T963 767V0ZM541 1294Q397 1294 312
1369T227 1570Q228 1664 275 1721T394 1805T544 1832Q689 1832 777 1764T863 1568Q862 1474 817 1414T699 1324T541 1294ZM541 1422Q614 1421 660 1454T706 1567Q706 1635 659 1671T541 1707Q502 1707 466 1695T407 1653T384 1570Q384 1505 426 1465T541 1422Z"
/>
<glyph unicode="&#xe6;" horiz-adv-x="1750" d="M1236 -16Q996 -16 866 131T736 558Q736 720 793 848T963 1051T1240 1128Q1324 1130 1398 1105T1528 1026T1619 893T1656 705Q1656 644 1655 594T1644 505H872L890 652H1440Q1445 733 1430 804T1368 920T1229 965Q1151
965 1089 922T994 775T965 492Q971 363 1015 291T1133 189T1296 159Q1334 159 1389 167T1497 188T1578 219L1620 86Q1584 56 1521 33T1382 -3T1236 -16ZM93 302Q93 410 153 486T308 604Q403 644 515 659T734 675L781 614L737 533Q657 533 578 520T444 481Q393 458
360 422T326 320Q326 238 370 195T506 152Q560 152 618 170T723 219T792 290L838 252L869 188Q788 79 678 32T443 -16Q345 -16 266 21T140 130T93 302ZM204 873L148 1026Q170 1038 237 1063T394 1110T576 1131Q692 1131 773 1102T897 995T940 767V580H734V778Q734
854 711 892T641 943T519 956Q469 956 406 943T288 910T204 873Z" />
<glyph unicode="&#xe7;" horiz-adv-x="976" d="M80 544Q80 709 140 841T320 1050T620 1128Q725 1128 798 1109T898 1072L862 890Q820 919 761 933T618 948Q543 948 473 912T356 795T304 584Q300 446 340 352T452 209T612 160Q695 160 765 181T872 224L916 90Q865
42 772 13T574 -16Q415 -16 305 58T138 258T80 544ZM208 -426L222 -284Q236 -291 258 -293T302 -296Q362 -296 397 -263T434 -150Q436 -85 427 -42T404 30L494 34L538 30Q558 7 570 -29T588 -112T594 -212Q594 -296 559 -349T470 -428T358 -454Q330 -454 300 -451T244
-441T208 -426Z" />
<glyph unicode="&#xe8;" horiz-adv-x="1116" d="M598 -16Q358 -16 228 136T98 558Q98 720 155 848T325 1051T602 1128Q686 1130 760 1104T891 1026T981 893T1018 706Q1018 643 1017 594T1008 506H232L252 652H802Q807 732 793 803T731 919T590 964Q512 964 450
921T354 774T326 492Q332 366 377 293T495 189T658 158Q696 158 751 166T857 188T936 218L980 86Q943 56 880 33T742 -3T598 -16ZM684 1346L589 1257Q559 1271 506 1311T394 1405T285 1513T209 1608L354 1740Q398 1678 454 1610T569 1475T684 1346Z" />
<glyph unicode="&#xe9;" horiz-adv-x="1116" d="M598 -16Q358 -16 228 136T98 558Q98 720 155 848T325 1051T602 1128Q686 1130 760 1104T891 1026T981 893T1018 706Q1018 643 1017 594T1008 506H232L252 652H802Q807 732 793 803T731 919T590 964Q512 964 450
921T354 774T326 492Q332 366 377 293T495 189T658 158Q696 158 751 166T857 188T936 218L980 86Q943 56 880 33T742 -3T598 -16ZM536 1257L431 1344Q487 1404 545 1472T660 1613T762 1755L912 1631Q897 1604 861 1561T779 1470T685 1376T598 1298T536 1257Z" />
<glyph unicode="&#xea;" horiz-adv-x="1116" d="M598 -16Q358 -16 228 136T98 558Q98 720 155 848T325 1051T602 1128Q686 1130 760 1104T891 1026T981 893T1018 706Q1018 643 1017 594T1008 506H232L252 652H802Q807 732 793 803T731 919T590 964Q512 964 450
921T354 774T326 492Q332 366 377 293T495 189T658 158Q696 158 751 166T857 188T936 218L980 86Q943 56 880 33T742 -3T598 -16ZM338 1241L228 1301L508 1643H689L960 1301L840 1242L594 1457L338 1241Z" />
<glyph unicode="&#xeb;" horiz-adv-x="1116" d="M598 -16Q358 -16 228 136T98 558Q98 720 155 848T325 1051T602 1128Q686 1130 760 1104T891 1026T981 893T1018 706Q1018 643 1017 594T1008 506H232L252 652H802Q807 732 793 803T731 919T590 964Q512 964 450
921T354 774T326 492Q332 366 377 293T495 189T658 158Q696 158 751 166T857 188T936 218L980 86Q943 56 880 33T742 -3T598 -16ZM358 1302Q302 1302 263 1338T224 1435Q224 1499 273 1543T381 1587Q449 1587 481 1548T513 1453Q513 1386 467 1344T358 1302ZM810
1302Q755 1302 716 1338T676 1435Q676 1499 725 1543T833 1587Q902 1587 933 1548T965 1453Q965 1386 919 1344T810 1302Z" />
<glyph unicode="&#xec;" horiz-adv-x="590" d="M180 0V1112H410V0H180ZM384 1346L289 1257Q259 1271 206 1311T94 1405T-15 1513T-91 1608L54 1740Q98 1678 154 1610T269 1475T384 1346Z" />
<glyph unicode="&#xed;" horiz-adv-x="590" d="M180 0V1112H410V0H180ZM236 1257L131 1344Q187 1404 245 1472T360 1613T462 1755L612 1631Q597 1604 561 1561T479 1470T385 1376T298 1298T236 1257Z" />
<glyph unicode="&#xee;" horiz-adv-x="590" d="M180 0V1112H410V0H180ZM38 1241L-72 1301L208 1643H389L660 1301L540 1242L294 1457L38 1241Z" />
<glyph unicode="&#xef;" horiz-adv-x="590" d="M180 0V1112H410V0H180ZM58 1302Q2 1302 -37 1338T-76 1435Q-76 1499 -27 1543T81 1587Q149 1587 181 1548T213 1453Q213 1386 167 1344T58 1302ZM510 1302Q455 1302 416 1338T376 1435Q376 1499 425 1543T533 1587Q602
1587 633 1548T665 1453Q665 1386 619 1344T510 1302Z" />
<glyph unicode="&#xf0;" horiz-adv-x="1180" d="M600 -26Q446 -28 332 41T155 239T92 540Q92 722 154 853T330 1055T595 1125Q686 1125 752 1089T859 996T915 875L834 919Q812 1078 726 1209T520 1432Q508 1440 497 1449T474 1466Q414 1509 349 1544T216 1602L268
1733Q363 1703 445 1664T600 1576Q614 1567 630 1556T659 1535Q801 1433 900 1290T1052 972T1105 601Q1105 393 1041 254T864 46T600 -26ZM609 136Q689 136 748 185T841 327T874 545Q874 593 874 638T874 730T869 824Q856 868 794 912T608 956Q465 956 395 842T324
546Q324 365 396 251T609 136ZM415 1268L296 1358L461 1542L487 1572Q505 1588 533 1621T591 1689T640 1750T660 1775L780 1685Q780 1685 760 1662T711 1604T650 1537T598 1486L574 1452L415 1268Z" />
<glyph unicode="&#xf1;" horiz-adv-x="1262" d="M172 0V1112H379L380 994Q421 1022 483 1053T618 1106T763 1130Q942 1135 1020 1038T1098 695V0H866V683Q866 823 829 884T666 938Q631 937 586 926T493 893T402 838V0H172ZM772 1291Q718 1291 683 1312T621 1360T568
1409T509 1430Q467 1430 441 1418T399 1386T371 1341L281 1387Q299 1439 327 1487T400 1566T511 1598Q563 1598 598 1578T659 1530T712 1482T771 1461Q808 1461 834 1472T877 1504T906 1549L1000 1497Q988 1440 956 1394T877 1319T772 1291Z" />
<glyph unicode="&#xf2;" horiz-adv-x="1198" d="M589 -16Q453 -16 358 32T204 163T119 353T93 580Q96 759 164 881T348 1065T609 1128Q791 1128 900 1046T1058 828T1105 534Q1102 355 1035 233T852 47T589 -16ZM595 147Q732 145 801 250T871 543Q871 659 843 753T756
905T603 963Q467 966 398 865T329 577Q329 461 357 364T444 208T595 147ZM699 1346L604 1257Q574 1271 521 1311T409 1405T300 1513T224 1608L369 1740Q413 1678 469 1610T584 1475T699 1346Z" />
<glyph unicode="&#xf3;" horiz-adv-x="1198" d="M589 -16Q453 -16 358 32T204 163T119 353T93 580Q96 759 164 881T348 1065T609 1128Q791 1128 900 1046T1058 828T1105 534Q1102 355 1035 233T852 47T589 -16ZM595 147Q732 145 801 250T871 543Q871 659 843 753T756
905T603 963Q467 966 398 865T329 577Q329 461 357 364T444 208T595 147ZM551 1257L446 1344Q502 1404 560 1472T675 1613T777 1755L927 1631Q912 1604 876 1561T794 1470T700 1376T613 1298T551 1257Z" />
<glyph unicode="&#xf4;" horiz-adv-x="1198" d="M589 -16Q453 -16 358 32T204 163T119 353T93 580Q96 759 164 881T348 1065T609 1128Q791 1128 900 1046T1058 828T1105 534Q1102 355 1035 233T852 47T589 -16ZM595 147Q732 145 801 250T871 543Q871 659 843 753T756
905T603 963Q467 966 398 865T329 577Q329 461 357 364T444 208T595 147ZM353 1241L243 1301L523 1643H704L975 1301L855 1242L609 1457L353 1241Z" />
<glyph unicode="&#xf5;" horiz-adv-x="1198" d="M589 -16Q453 -16 358 32T204 163T119 353T93 580Q96 759 164 881T348 1065T609 1128Q791 1128 900 1046T1058 828T1105 534Q1102 355 1035 233T852 47T589 -16ZM595 147Q732 145 801 250T871 543Q871 659 843 753T756
905T603 963Q467 966 398 865T329 577Q329 461 357 364T444 208T595 147ZM740 1291Q686 1291 651 1312T589 1360T536 1409T477 1430Q435 1430 409 1418T367 1386T339 1341L249 1387Q267 1439 295 1487T368 1566T479 1598Q531 1598 566 1578T627 1530T680 1482T739
1461Q776 1461 802 1472T845 1504T874 1549L968 1497Q956 1440 924 1394T845 1319T740 1291Z" />
<glyph unicode="&#xf6;" horiz-adv-x="1198" d="M589 -16Q453 -16 358 32T204 163T119 353T93 580Q96 759 164 881T348 1065T609 1128Q791 1128 900 1046T1058 828T1105 534Q1102 355 1035 233T852 47T589 -16ZM595 147Q732 145 801 250T871 543Q871 659 843 753T756
905T603 963Q467 966 398 865T329 577Q329 461 357 364T444 208T595 147ZM373 1302Q317 1302 278 1338T239 1435Q239 1499 288 1543T396 1587Q464 1587 496 1548T528 1453Q528 1386 482 1344T373 1302ZM825 1302Q770 1302 731 1338T691 1435Q691 1499 740 1543T848
1587Q917 1587 948 1548T980 1453Q980 1386 934 1344T825 1302Z" />
<glyph unicode="&#xf7;" horiz-adv-x="1362" d="M680 1003Q620 1003 577 1043T534 1148Q534 1194 558 1231T620 1291T701 1314Q775 1314 810 1272T846 1169Q846 1122 823 1084T762 1025T680 1003ZM677 205Q618 205 576 244T533 348Q533 394 557 431T619 490T700
513Q772 513 809 472T846 369Q846 322 823 285T761 226T677 205ZM219 666V843H1142V666H219Z" />
<glyph unicode="&#xf8;" horiz-adv-x="1200" d="M286 -164L793 1314L915 1281L408 -199L286 -164ZM590 -16Q454 -16 359 32T204 163T119 353T94 580Q96 759 164 881T348 1065T610 1128Q792 1128 901 1046T1059 828T1106 534Q1103 355 1036 233T853 47T590 -16ZM596
147Q733 145 802 250T872 543Q872 659 844 753T757 905T604 963Q468 966 399 865T329 577Q329 461 357 364T445 208T596 147Z" />
<glyph unicode="&#xf9;" horiz-adv-x="1216" d="M484 -16Q375 -16 308 18T206 115T159 267T146 462V1114H376V464Q376 332 396 270T460 190T574 172Q615 172 661 184T749 214T814 248V1114H1044V-16H938Q892 -16 865 -3T838 66V144L842 100Q797 70 737 44T610
1T484 -16ZM694 1346L599 1257Q569 1271 516 1311T404 1405T295 1513T219 1608L364 1740Q408 1678 464 1610T579 1475T694 1346Z" />
<glyph unicode="&#xfa;" horiz-adv-x="1216" d="M484 -16Q375 -16 308 18T206 115T159 267T146 462V1114H376V464Q376 332 396 270T460 190T574 172Q615 172 661 184T749 214T814 248V1114H1044V-16H938Q892 -16 865 -3T838 66V144L842 100Q797 70 737 44T610
1T484 -16ZM546 1257L441 1344Q497 1404 555 1472T670 1613T772 1755L922 1631Q907 1604 871 1561T789 1470T695 1376T608 1298T546 1257Z" />
<glyph unicode="&#xfb;" horiz-adv-x="1216" d="M484 -16Q375 -16 308 18T206 115T159 267T146 462V1114H376V464Q376 332 396 270T460 190T574 172Q615 172 661 184T749 214T814 248V1114H1044V-16H938Q892 -16 865 -3T838 66V144L842 100Q797 70 737 44T610
1T484 -16ZM348 1241L238 1301L518 1643H699L970 1301L850 1242L604 1457L348 1241Z" />
<glyph unicode="&#xfc;" horiz-adv-x="1216" d="M484 -16Q375 -16 308 18T206 115T159 267T146 462V1114H376V464Q376 332 396 270T460 190T574 172Q615 172 661 184T749 214T814 248V1114H1044V-16H938Q892 -16 865 -3T838 66V144L842 100Q797 70 737 44T610
1T484 -16ZM368 1302Q312 1302 273 1338T234 1435Q234 1499 283 1543T391 1587Q459 1587 491 1548T523 1453Q523 1386 477 1344T368 1302ZM820 1302Q765 1302 726 1338T686 1435Q686 1499 735 1543T843 1587Q912 1587 943 1548T975 1453Q975 1386 929 1344T820
1302Z" />
<glyph unicode="&#xfd;" horiz-adv-x="1102" d="M138 -480V-292Q155 -298 187 -302T236 -306Q278 -306 336 -283T447 -188T530 28L544 0H448L50 1114H298L530 392L624 80H564L646 392L844 1114H1092L722 -34Q656 -235 565 -341T366 -478Q345 -485 311 -490T254
-496Q239 -496 214 -494T167 -488T138 -480ZM534 1257L429 1344Q485 1404 543 1472T658 1613T760 1755L910 1631Q895 1604 859 1561T777 1470T683 1376T596 1298T534 1257Z" />
<glyph unicode="&#xfe;" horiz-adv-x="1242" d="M171 62L391 18L403 -166V-496H171V62ZM180 1622H410V1168L402 972L410 966V164L180 62V1622ZM584 -18Q523 -18 459 -10T336 12T237 38T180 62L410 188Q437 169 486 159T608 148Q694 148 762 196T871 339T914 570Q916
768 845 859T646 950Q568 950 507 921T410 864L374 978Q397 1002 437 1037T543 1100T710 1128Q828 1128 928 1071T1089 896T1150 598Q1150 417 1080 278T882 61T584 -18Z" />
<glyph unicode="&#xff;" horiz-adv-x="1102" d="M138 -480V-292Q155 -298 187 -302T236 -306Q278 -306 336 -283T447 -188T530 28L544 0H448L50 1114H298L530 392L624 80H564L646 392L844 1114H1092L722 -34Q656 -235 565 -341T366 -478Q345 -485 311 -490T254
-496Q239 -496 214 -494T167 -488T138 -480ZM356 1302Q300 1302 261 1338T222 1435Q222 1499 271 1543T379 1587Q447 1587 479 1548T511 1453Q511 1386 465 1344T356 1302ZM808 1302Q753 1302 714 1338T674 1435Q674 1499 723 1543T831 1587Q900 1587 931 1548T963
1453Q963 1386 917 1344T808 1302Z" />
<glyph unicode="&#x2013;" horiz-adv-x="1544" d="M180 562V748H1364V562H180Z" />
<glyph unicode="&#x2014;" horiz-adv-x="2190" d="M180 599V785H2010V599H180Z" />
<glyph unicode="&#x2018;" horiz-adv-x="515" d="M292 934Q236 955 191 1004T121 1125T95 1287Q95 1391 130 1474T212 1613T297 1693L397 1629V1599Q369 1575 349 1530T317 1432T306 1334Q306 1257 341 1197T413 1120V1058L292 934Z" />
<glyph unicode="&#x2019;" horiz-adv-x="515" d="M222 934L122 998V1028Q145 1053 161 1098T187 1195T196 1293Q196 1373 166 1435T105 1516V1577L249 1684Q294 1664 330 1625T386 1524T407 1373Q407 1251 375 1162T299 1015T222 934Z" />
<glyph unicode="&#x201a;" horiz-adv-x="515" d="M222 -529L122 -465V-435Q145 -410 161 -365T187 -268T196 -170Q196 -90 166 -28T105 53V114L249 221Q294 201 330 162T386 61T407 -90Q407 -212 375 -301T299 -448T222 -529Z" />
<glyph unicode="&#x201c;" horiz-adv-x="1148" d="M376 934Q320 955 275 1004T205 1125T179 1287Q179 1391 214 1474T296 1613T381 1693L481 1629V1599Q453 1575 433 1530T401 1432T390 1334Q390 1257 425 1197T497 1120V1058L376 934ZM886 934Q830 955 785 1004T715
1125T689 1287Q689 1391 724 1474T806 1613T891 1693L991 1629V1599Q963 1575 943 1530T911 1432T900 1334Q900 1257 935 1197T1007 1120V1058L886 934Z" />
<glyph unicode="&#x201d;" horiz-adv-x="1130" d="M256 934L156 998V1028Q179 1053 195 1098T221 1195T230 1293Q230 1373 200 1435T139 1516V1577L283 1684Q328 1664 364 1625T420 1524T441 1373Q441 1251 409 1162T333 1015T256 934ZM766 934L666 998V1028Q689
1053 705 1098T731 1195T740 1293Q740 1373 710 1435T649 1516V1577L793 1684Q838 1664 874 1625T930 1524T951 1373Q951 1251 919 1162T843 1015T766 934Z" />
<glyph unicode="&#x201e;" horiz-adv-x="1018" d="M222 -505L122 -441V-411Q145 -386 161 -341T187 -244T196 -146Q196 -66 166 -4T105 77V138L249 245Q294 225 330 186T386 85T407 -66Q407 -188 375 -277T299 -424T222 -505ZM728 -505L628 -441V-411Q651 -386
667 -341T693 -244T702 -146Q702 -66 672 -4T611 77V138L755 245Q800 225 836 186T892 85T913 -66Q913 -188 881 -277T805 -424T728 -505Z" />
<glyph unicode="&#x2022;" horiz-adv-x="843" d="M412 482Q351 482 302 512T224 594T198 708Q201 772 234 823T319 906T433 937Q524 937 586 873T644 712Q642 650 610 598T526 514T412 482Z" />
<glyph unicode="&#x2039;" horiz-adv-x="1178" d="M238 501V692L868 1110L926 943L406 558V642L926 261L868 97L238 501Z" />
<glyph unicode="&#x203a;" horiz-adv-x="1178" d="M938 501V692L308 1110L250 943L770 558V642L250 261L308 97L938 501Z" />
</font>
</defs>
</svg>
